<?xml version="1.0" standalone="no"?>
<!DOCTYPE svg PUBLIC "-//W3C//DTD SVG 1.1//EN" "http://www.w3.org/Graphics/SVG/1.1/DTD/svg11.dtd">
<svg xmlns="http://www.w3.org/2000/svg">
<defs >
<font id="SpaceGrotesk" horiz-adv-x="559" ><font-face
    font-family="Space Grotesk Light SemiBold"
    units-per-em="1000"
    panose-1="0 0 0 0 0 0 0 0 0 0"
    ascent="984"
    descent="-292"
    alphabetic="0" />
<glyph unicode=" " horiz-adv-x="255" />
<glyph unicode="!" horiz-adv-x="287" d="M85 220V700H202V220H85ZM144 -14Q106 -14 81 11T55 75Q55 113 80 138T144 163Q182 163 207 138T232 74Q232 35 207 11T144 -14Z" />
<glyph unicode="&quot;" horiz-adv-x="492" d="M78 411V475H115Q158 475 158 518V550H142Q105 550 80 572T55 630Q55 667 80 690T142 714Q180 714 204 690T228 627V517Q228 411 123 411H78ZM286 411V475H323Q366 475 366 518V550H350Q313 550 288 572T263 630Q263
667 288 690T350 714Q388 714 412 690T436 627V517Q436 411 331 411H286Z" />
<glyph unicode="#" horiz-adv-x="634" d="M153 0V191H41V289H153V411H41V509H153V700H257V509H377V700H481V509H593V411H481V289H593V191H481V0H377V191H257V0H153ZM257 289H377V411H257V289Z" />
<glyph unicode="$" horiz-adv-x="608" d="M310 -14Q230 -14 169 14T72 97T37 229V255H156V229Q156 160 198 126T310 92Q381 92 417 121T453 196Q453 227 437 246T388 278T310 301L280 307Q211 323 161 347T83 411T55 513Q55 576 85 621T171 690T300 714Q374 714
432 689T523 614T556 489V456H438V489Q438 532 421 558T373 596T300 608Q237 608 206 584T174 516Q174 488 188 469T231 437T303 415L333 408Q405 392 458 368T541 303T572 199Q572 136 540 88T449 13T310 -14ZM255 -116V816H364V-116H255Z" />
<glyph unicode="%" horiz-adv-x="761" d="M145 -13L74 43L617 713L687 657L145 -13ZM572 -11Q497 -11 454 30T411 142V149Q411 220 454 261T572 302Q646 302 689 261T733 149V142Q733 71 690 30T572 -11ZM572 65Q604 65 622 85T641 138V153Q641 186 623 206T572
226Q540 226 522 206T503 153V138Q503 106 521 86T572 65ZM189 398Q114 398 71 439T28 550V557Q28 629 71 670T189 711Q263 711 307 670T351 557V550Q351 480 308 439T189 398ZM189 474Q222 474 240 494T259 547V562Q259 594 241 614T189 635Q157 635 139 615T120
562V547Q120 514 138 494T189 474Z" />
<glyph unicode="&amp;" horiz-adv-x="594" d="M239 0Q178 0 132 22T59 87T32 188Q32 231 48 263T91 317T150 348V361Q101 376 69 413T37 513Q37 573 64 615T137 678T243 700H356V605H263Q215 605 183 580T151 503Q151 468 166 446T207 412T263 401H370V496H484V401H578V306H484V0H239ZM259
95H370V306H259Q211 306 179 280T147 201Q147 147 180 121T259 95Z" />
<glyph unicode="&apos;" horiz-adv-x="284" d="M78 411V475H115Q158 475 158 518V550H142Q105 550 80 572T55 630Q55 667 80 690T142 714Q180 714 204 690T228 627V517Q228 411 123 411H78Z" />
<glyph unicode="(" horiz-adv-x="393" d="M385 -243Q277 -243 203 -206T91 -90T52 110V400Q52 522 90 600T203 715T385 753V655Q273 655 218 592T163 395V115Q163 -18 218 -81T385 -145V-243Z" />
<glyph unicode=")" horiz-adv-x="387" d="M2 -243V-145Q114 -145 168 -82T223 115V395Q223 529 169 592T2 655V753Q110 753 184 716T296 600T334 400V110Q334 -11 296 -89T184 -205T2 -243Z" />
<glyph unicode="*" horiz-adv-x="535" d="M45 443V512H124L196 500L201 512L142 554L86 611L134 659L191 603L232 544L245 549L233 620V700H302V620L290 549L303 544L344 603L401 659L450 611L393 554L334 512L339 500L411 512H490V443H411L339 455L334 442L393
401L450 344L401 295L344 351L303 410L290 405L302 334V254H233V334L245 405L232 410L191 351L134 295L86 344L142 401L201 442L196 455L124 443H45Z" />
<glyph unicode="+" horiz-adv-x="620" d="M256 141V298H101V402H256V559H364V402H519V298H364V141H256Z" />
<glyph unicode="," horiz-adv-x="284" d="M78 -142V-78H115Q158 -78 158 -35V-3H142Q105 -3 80 19T55 77Q55 114 80 137T142 161Q180 161 204 137T228 74V-36Q228 -142 123 -142H78Z" />
<glyph unicode="-" horiz-adv-x="438" d="M71 204V307H367V204H71Z" />
<glyph unicode="." horiz-adv-x="287" d="M144 -14Q106 -14 81 11T55 75Q55 113 80 138T144 163Q182 163 207 138T232 74Q232 35 207 11T144 -14Z" />
<glyph unicode="/" horiz-adv-x="384" d="M-12 -200L282 700H396L102 -200H-12Z" />
<glyph unicode="0" horiz-adv-x="646" d="M323 -14Q200 -14 126 55T52 263V437Q52 573 126 643T323 714Q447 714 520 644T594 437V263Q594 124 521 55T323 -14ZM323 90Q402 90 439 134T477 259V442Q477 524 436 567T323 610Q249 610 209 566T169 442V259Q169 176
207 133T323 90Z" />
<glyph unicode="1" horiz-adv-x="444" d="M258 0V616H241L136 387H13L162 700H374V0H258Z" />
<glyph unicode="2" horiz-adv-x="596" d="M45 0V81Q45 155 69 202T140 280T252 331L316 351Q355 364 382 382T424 426T439 489V493Q439 547 402 578T303 610Q241 610 202 577T163 478V461H47V476Q47 552 81 605T173 686T303 714Q375 714 432 687T522 610T555 495V485Q555
418 528 372T454 297T346 248L284 229Q239 215 213 199T175 163T164 111V104H549V0H45Z" />
<glyph unicode="3" horiz-adv-x="607" d="M304 -14Q226 -14 166 14T71 94T37 220V238H153V223Q153 162 194 126T304 90Q372 90 410 123T448 208V217Q448 253 431 275T384 307T317 318H183V448L420 581V596H54V700H548V544L324 418V403H365Q415 403 460 384T535
324T564 220V209Q564 141 532 91T441 14T304 -14Z" />
<glyph unicode="4" horiz-adv-x="633" d="M377 0V142H27V277L282 700H493V246H610V142H493V0H377ZM139 246H377V626H360L139 261V246Z" />
<glyph unicode="5" horiz-adv-x="600" d="M303 -14Q222 -14 164 15T73 97T41 220V230H159V221Q159 164 195 127T301 90Q370 90 408 128T446 228V237Q446 298 409 334T314 370Q282 370 262 361T228 339T207 311H63V700H536V594H179V406H196Q207 421 224 434T270
457T339 467Q401 467 451 441T532 363T562 238V227Q562 154 531 100T442 16T303 -14Z" />
<glyph unicode="6" horiz-adv-x="617" d="M311 -14Q233 -14 175 15T85 98T52 221V462Q52 545 86 601T179 685T317 714Q395 714 451 688T538 613T569 498H451Q451 544 420 577T317 610Q246 610 208 573T169 469V391H186Q203 414 240 433T345 453Q407 453 458 427T542
351T574 231V219Q574 149 541 97T449 15T311 -14ZM313 90Q379 90 418 125T457 220V228Q457 269 440 298T390 343T313 360Q270 360 237 344T187 298T169 228V220Q169 161 208 126T313 90Z" />
<glyph unicode="7" horiz-adv-x="556" d="M136 0V26Q136 64 142 90T168 152L410 581V596H28V700H531V562L275 105Q262 82 258 65T253 21V0H136Z" />
<glyph unicode="8" horiz-adv-x="606" d="M303 -14Q222 -14 161 10T67 79T33 186V198Q33 247 51 279T96 329T147 354V371Q123 379 99 397T59 445T43 518V530Q43 585 75 626T166 691T303 714Q380 714 438 691T529 627T562 530V518Q562 475 547 445T508 397T459
371V354Q484 347 510 329T555 279T573 198V186Q573 125 539 80T444 10T303 -14ZM303 90Q376 90 416 118T457 195V203Q457 251 417 279T303 308Q229 308 189 280T149 203V195Q149 146 189 118T303 90ZM303 411Q371 411 408 436T446 507V515Q446 560 408 585T303
610Q237 610 199 585T160 515V507Q160 461 197 436T303 411Z" />
<glyph unicode="9" horiz-adv-x="617" d="M300 -14Q222 -14 166 12T78 87T47 202H165Q165 156 197 123T300 90Q371 90 409 127T448 231V309H431Q413 286 377 267T271 247Q210 247 158 273T75 349T43 469V481Q43 552 76 604T168 685T305 714Q383 714 441 685T532
602T564 479V238Q564 155 531 99T438 15T300 -14ZM303 340Q348 340 380 356T430 402T448 472V480Q448 540 409 575T303 610Q237 610 198 575T159 480V472Q159 432 177 403T227 357T303 340Z" />
<glyph unicode=":" horiz-adv-x="287" d="M144 -14Q106 -14 81 11T55 75Q55 113 80 138T144 163Q182 163 207 138T232 74Q232 35 207 11T144 -14ZM144 332Q106 332 81 357T55 421Q55 459 80 484T144 509Q182 509 207 484T232 420Q232 381 207 357T144 332Z" />
<glyph unicode=";" horiz-adv-x="287" d="M144 332Q106 332 81 357T55 421Q55 459 80 484T144 509Q182 509 207 484T232 420Q232 381 207 357T144 332ZM80 -142V-78H117Q160 -78 160 -35V-3H144Q107 -3 82 19T57 77Q57 114 82 137T144 161Q182 161 206 137T230
74V-36Q230 -142 125 -142H80Z" />
<glyph unicode="&lt;" horiz-adv-x="620" d="M520 130L100 279V421L520 570V459L212 358V342L520 241V130Z" />
<glyph unicode="=" horiz-adv-x="620" d="M101 382V486H519V382H101ZM101 214V318H519V214H101Z" />
<glyph unicode="&gt;" horiz-adv-x="620" d="M100 130V241L408 342V358L100 459V570L520 421V279L100 130Z" />
<glyph unicode="?" horiz-adv-x="579" d="M216 220V252Q216 302 235 333T301 386L320 395Q367 417 392 442T417 511Q417 543 401 565T357 600T291 612Q252 612 222 599T173 561T154 496V470H36V494Q36 563 69 612T161 688T291 714Q362 714 417 688T503 617T535
511Q535 452 514 414T458 352T388 311L368 302Q350 294 343 282T336 248V220H216ZM279 -14Q242 -14 217 10T191 74Q191 113 216 138T279 163Q317 163 342 138T368 74Q368 35 343 11T279 -14Z" />
<glyph unicode="@" horiz-adv-x="1017" d="M526 -200Q385 -200 283 -146T125 7T69 245V268Q69 406 123 505T276 658T513 712H534Q660 712 754 660T900 514T952 294V230Q952 119 909 60T779 0H727Q681 0 657 19T633 69V73H616Q608 52 592 34T551 4T486 -7Q424 -7
379 26T308 115T283 240V256Q283 326 307 382T375 471T478 504Q517 504 542 494T583 468T609 434H626V496H736V134Q736 117 743 110T766 102H772Q808 102 823 133T839 231V292Q839 391 805 461T702 570T531 608H516Q413 608 338 569T223 454T182 265V249Q182 136
224 59T345 -57T533 -96H738V-200H526ZM510 91Q562 91 594 131T626 242V254Q626 324 594 364T510 405Q457 405 426 365T395 254V242Q395 172 426 132T510 91Z" />
<glyph unicode="A" horiz-adv-x="633" d="M20 0L212 700H421L613 0H489L447 160H186L144 0H20ZM214 270H419L325 625H308L214 270Z" />
<glyph unicode="B" horiz-adv-x="663" d="M46 0V106H140V594H46V700H404Q467 700 514 679T588 618T615 523V514Q615 466 597 435T554 387T506 363V346Q529 340 555 324T600 276T619 194V184Q619 127 592 86T517 22T407 0H46ZM260 109H393Q441 109 469 132T498
199V208Q498 251 470 274T393 298H260V109ZM260 407H392Q438 407 466 430T495 494V504Q495 545 467 568T392 591H260V407Z" />
<glyph unicode="C" horiz-adv-x="643" d="M332 -14Q204 -14 128 58T52 267V433Q52 569 128 641T332 714Q460 714 529 644T599 452V446H481V455Q481 521 445 563T332 606Q258 606 216 561T173 435V265Q173 186 215 140T332 94Q408 94 444 136T481 245V262H599V248Q599
126 530 56T332 -14Z" />
<glyph unicode="D" horiz-adv-x="665" d="M46 0V106H140V594H46V700H331Q471 700 545 629T619 416V284Q619 142 545 71T331 0H46ZM260 109H332Q417 109 458 153T499 280V419Q499 504 458 547T332 591H260V109Z" />
<glyph unicode="E" horiz-adv-x="556" d="M69 0V700H515V591H190V407H487V298H190V109H520V0H69Z" />
<glyph unicode="F" horiz-adv-x="535" d="M69 0V700H505V591H190V406H480V296H190V0H69Z" />
<glyph unicode="G" horiz-adv-x="661" d="M312 -14Q238 -14 180 18T87 113T52 267V433Q52 569 128 641T332 714Q460 714 529 646T598 461V457H480V465Q480 505 464 537T415 587T332 606Q258 606 216 561T173 435V265Q173 186 215 139T334 92Q410 92 445 133T480
238V250H303V352H598V0H488V69H471Q463 51 446 32T398 -1T312 -14Z" />
<glyph unicode="H" horiz-adv-x="656" d="M69 0V700H190V406H466V700H587V0H466V296H190V0H69Z" />
<glyph unicode="I" horiz-adv-x="259" d="M69 0V700H190V0H69Z" />
<glyph unicode="J" horiz-adv-x="606" d="M266 -14Q159 -14 97 44T34 210V273H154V210Q154 158 182 128T263 98Q313 98 338 128T364 210V591H244V700H563V591H485V210Q485 101 427 44T266 -14Z" />
<glyph unicode="K" horiz-adv-x="622" d="M69 0V700H190V415H207L451 700H606L301 355L616 0H457L207 291H190V0H69Z" />
<glyph unicode="L" horiz-adv-x="543" d="M69 0V700H190V109H518V0H69Z" />
<glyph unicode="M" horiz-adv-x="878" d="M69 0V700H294L430 81H447L584 700H808V0H692V613H675L539 0H339L203 613H186V0H69Z" />
<glyph unicode="N" horiz-adv-x="668" d="M69 0V700H299L464 81H480V700H599V0H370L205 619H188V0H69Z" />
<glyph unicode="O" horiz-adv-x="674" d="M337 -14Q207 -14 130 58T52 267V433Q52 569 129 641T337 714Q468 714 545 642T622 433V267Q622 131 545 59T337 -14ZM337 94Q415 94 458 139T502 263V437Q502 515 459 560T337 606Q260 606 217 561T173 437V263Q173 185
216 140T337 94Z" />
<glyph unicode="P" horiz-adv-x="603" d="M69 0V700H352Q418 700 468 674T547 601T576 488V474Q576 410 547 362T467 288T352 262H190V0H69ZM190 371H340Q392 371 423 399T455 476V486Q455 535 424 563T340 591H190V371Z" />
<glyph unicode="Q" horiz-adv-x="674" d="M337 -14Q207 -14 130 58T52 267V433Q52 569 129 641T337 714Q468 714 545 642T622 433V267Q622 131 545 59T337 -14ZM337 94Q415 94 458 139T502 263V437Q502 515 459 560T337 606Q260 606 217 561T173 437V263Q173 185
216 140T337 94ZM382 -175Q336 -175 308 -147T279 -70V0H395V-52Q395 -82 423 -82H484V-175H382Z" />
<glyph unicode="R" horiz-adv-x="632" d="M69 0V700H368Q434 700 483 677T559 613T587 513V502Q587 437 556 398T481 341V325Q520 323 542 298T565 231V0H445V214Q445 239 432 254T388 270H190V0H69ZM190 379H356Q408 379 437 406T467 480V489Q467 536 438 563T356
591H190V379Z" />
<glyph unicode="S" horiz-adv-x="608" d="M310 -14Q230 -14 169 14T72 97T37 229V255H156V229Q156 160 198 126T310 92Q381 92 417 121T453 196Q453 227 436 246T387 278T308 301L278 307Q209 323 159 347T81 411T54 513Q54 576 84 621T169 690T298 714Q372 714
430 689T521 614T555 489V456H436V489Q436 532 419 558T371 596T298 608Q236 608 204 584T172 516Q172 488 186 469T229 437T301 415L331 408Q403 392 457 368T541 303T572 199Q572 136 540 88T449 13T310 -14Z" />
<glyph unicode="T" horiz-adv-x="588" d="M234 0V591H25V700H563V591H354V0H234Z" />
<glyph unicode="U" horiz-adv-x="671" d="M335 -14Q251 -14 191 16T98 105T65 243V700H185V240Q185 170 224 132T335 94Q408 94 446 132T485 240V700H605V243Q605 163 573 105T480 17T335 -14Z" />
<glyph unicode="V" horiz-adv-x="618" d="M206 0L20 700H144L302 77H316L475 700H599L412 0H206Z" />
<glyph unicode="W" horiz-adv-x="892" d="M129 0L32 700H151L227 83H244L342 700H551L649 83H666L741 700H861L763 0H554L455 629H438L338 0H129Z" />
<glyph unicode="X" horiz-adv-x="642" d="M24 0L235 353L27 700H164L313 438H330L478 700H616L408 353L618 0H481L330 268H313L162 0H24Z" />
<glyph unicode="Y" horiz-adv-x="621" d="M250 0V247L9 700H144L302 391H319L477 700H611L370 247V0H250Z" />
<glyph unicode="Z" horiz-adv-x="576" d="M47 0V154L404 578V592H57V700H528V546L171 122V108H532V0H47Z" />
<glyph unicode="[" horiz-adv-x="352" d="M169 -243Q127 -243 100 -216T73 -147V657Q73 699 100 726T169 753H336V655H211Q184 655 184 625V-115Q184 -145 211 -145H336V-243H169Z" />
<glyph unicode="\" horiz-adv-x="384" d="M281 -200L-13 700H102L396 -200H281Z" />
<glyph unicode="]" horiz-adv-x="352" d="M17 -243V-145H141Q168 -145 168 -115V625Q168 655 141 655H17V753H183Q226 753 252 726T279 657V-147Q279 -189 253 -216T183 -243H17Z" />
<glyph unicode="^" horiz-adv-x="620" d="M71 424L224 700H396L549 424H420L318 626H302L200 424H71Z" />
<glyph unicode="_" horiz-adv-x="620" d="M68 -152V-48H552V-152H68Z" />
<glyph unicode="`" horiz-adv-x="292" d="M147 555L43 700H174L249 555H147Z" />
<glyph unicode="a" horiz-adv-x="577" d="M226 -14Q174 -14 132 4T66 58T41 144Q41 194 65 228T133 279T231 297H374V327Q374 366 350 390T275 415Q225 415 200 392T166 331L60 366Q72 405 98 437T169 488T277 508Q374 508 429 460T485 319V125Q485 95 513 95H555V0H474Q438
0 415 18T392 67V69H375Q369 55 354 35T309 1T226 -14ZM245 80Q302 80 338 112T374 200V210H238Q201 210 178 194T155 147Q155 117 179 99T245 80Z" />
<glyph unicode="b" horiz-adv-x="639" d="M365 -14Q295 -14 258 10T203 65H186V0H73V700H188V432H205Q216 452 235 469T286 497T365 508Q426 508 477 479T559 392T590 255V239Q590 159 559 102T477 16T365 -14ZM331 86Q393 86 434 126T475 242V252Q475 328 435
368T331 408Q269 408 228 368T186 252V242Q186 167 227 127T331 86Z" />
<glyph unicode="c" horiz-adv-x="589" d="M304 -14Q232 -14 174 16T83 103T49 240V254Q49 334 82 391T174 478T304 508Q375 508 425 483T507 415T547 317L436 294Q432 325 417 350T375 391T307 406Q266 406 234 389T183 336T164 252V242Q164 193 182 159T233 106T307
88Q368 88 399 119T439 201L550 175Q538 123 507 80T426 12T304 -14Z" />
<glyph unicode="d" horiz-adv-x="639" d="M275 -14Q215 -14 163 15T80 102T49 239V255Q49 335 80 392T162 478T275 508Q321 508 353 497T404 469T435 432H452V700H566V0H454V65H437Q419 35 382 11T275 -14ZM309 86Q371 86 412 126T453 242V252Q453 328 413 368T309
408Q247 408 206 368T164 252V242Q164 167 205 127T309 86Z" />
<glyph unicode="e" horiz-adv-x="581" d="M299 -14Q225 -14 169 17T81 106T49 241V253Q49 331 80 388T167 476T296 508Q368 508 422 477T506 388T536 255V214H165Q167 156 206 121T302 86Q358 86 385 110T426 166L521 117Q507 90 481 60T410 8T299 -14ZM166 301H419Q415
350 382 379T295 408Q240 408 207 379T166 301Z" />
<glyph unicode="f" horiz-adv-x="437" d="M159 0V399H27V494H159V594Q159 643 187 671T263 700H391V605H301Q273 605 273 575V494H409V399H273V0H159Z" />
<glyph unicode="g" horiz-adv-x="639" d="M49 245V260Q49 338 80 393T163 478T277 508Q347 508 383 483T437 429H454V494H566V-94Q566 -143 538 -171T462 -200H130V-100H423Q452 -100 452 -70V73H435Q424 56 405 39T355 9T277 -3Q215 -3 163 26T80 111T49 245ZM309
98Q371 98 412 137T453 248V258Q453 330 413 369T309 408Q247 408 206 369T164 258V248Q164 177 205 138T309 98Z" />
<glyph unicode="h" horiz-adv-x="615" d="M73 0V700H188V429H205Q213 446 231 463T278 491T353 502Q410 502 454 477T522 405T547 296V0H432V287Q432 347 403 376T319 406Q258 406 223 366T188 250V0H73Z" />
<glyph unicode="i" horiz-adv-x="261" d="M73 0V494H188V0H73ZM130 557Q99 557 77 577T54 632Q54 666 76 686T130 707Q163 707 184 687T206 632Q206 598 185 578T130 557Z" />
<glyph unicode="j" horiz-adv-x="263" d="M-20 -200V-101H47Q75 -101 75 -71V494H190V-94Q190 -143 162 -171T85 -200H-20ZM132 557Q101 557 79 577T56 632Q56 666 78 686T132 707Q165 707 186 687T208 632Q208 598 187 578T132 557Z" />
<glyph unicode="k" horiz-adv-x="558" d="M73 0V700H188V307H205L383 494H534L295 255L542 0H393L205 201H188V0H73Z" />
<glyph unicode="l" horiz-adv-x="261" d="M73 0V700H188V0H73Z" />
<glyph unicode="m" horiz-adv-x="855" d="M73 0V494H186V439H203Q216 464 246 483T328 503Q382 503 415 481T465 425H481Q498 459 530 481T621 503Q667 503 704 483T764 424T787 327V0H672V319Q672 362 649 384T585 407Q540 407 514 378T487 293V0H373V319Q373
362 350 384T286 407Q240 407 214 378T188 293V0H73Z" />
<glyph unicode="n" horiz-adv-x="615" d="M73 0V494H186V425H203Q216 453 250 478T353 503Q410 503 454 477T522 405T547 296V0H432V287Q432 347 403 376T319 406Q258 406 223 366T188 250V0H73Z" />
<glyph unicode="o" horiz-adv-x="613" d="M307 -14Q233 -14 175 16T83 103T49 239V255Q49 334 82 391T174 478T307 508Q381 508 439 478T530 391T564 255V239Q564 160 531 104T439 17T307 -14ZM307 88Q370 88 410 128T450 242V252Q450 325 410 365T307 406Q244
406 204 366T164 252V242Q164 169 204 129T307 88Z" />
<glyph unicode="p" horiz-adv-x="639" d="M73 -200V494H186V429H203Q220 460 257 484T365 508Q425 508 476 479T559 392T590 255V239Q590 159 559 102T477 16T365 -14Q318 -14 287 -3T236 26T205 62H188V-200H73ZM331 86Q394 86 434 126T475 242V252Q475 328 434
368T331 408Q269 408 228 368T186 252V242Q186 167 227 127T331 86Z" />
<glyph unicode="q" horiz-adv-x="639" d="M452 -200V62H435Q424 44 405 26T353 -3T275 -14Q214 -14 163 15T80 102T49 239V255Q49 335 80 392T163 478T275 508Q345 508 382 484T437 429H454V494H566V-200H452ZM309 86Q372 86 412 126T453 242V252Q453 328 412
368T309 408Q247 408 206 368T164 252V242Q164 167 205 127T309 86Z" />
<glyph unicode="r" horiz-adv-x="391" d="M73 0V494H186V437H203Q214 468 240 482T302 496H362V394H300Q250 394 219 368T188 286V0H73Z" />
<glyph unicode="s" horiz-adv-x="525" d="M277 -14Q181 -14 119 28T44 151L150 178Q157 140 175 118T219 87T277 78Q324 78 347 95T371 138Q371 165 349 178T280 200L249 205Q198 215 156 232T89 280T63 358Q63 430 116 469T257 508Q340 508 394 471T464 372L358
340Q350 382 323 399T257 417Q217 417 196 403T174 363Q174 337 196 324T255 305L286 299Q341 289 385 273T456 227T482 146Q482 69 427 28T277 -14Z" />
<glyph unicode="t" horiz-adv-x="457" d="M261 0Q213 0 185 28T156 106V399H27V494H156V653H271V494H413V399H271V125Q271 95 299 95H398V0H261Z" />
<glyph unicode="u" horiz-adv-x="615" d="M262 -8Q205 -8 161 17T93 89T69 198V494H183V207Q183 147 212 118T296 89Q357 89 392 129T428 244V494H542V0H430V69H413Q400 42 366 17T262 -8Z" />
<glyph unicode="v" horiz-adv-x="546" d="M182 0L20 494H142L264 84H281L404 494H526L364 0H182Z" />
<glyph unicode="w" horiz-adv-x="788" d="M120 0L43 494H157L210 77H227L302 494H486L561 77H578L631 494H745L668 0H477L403 417H386L311 0H120Z" />
<glyph unicode="x" horiz-adv-x="592" d="M30 0L214 249L33 494H167L288 323H305L426 494H559L378 249L562 0H427L305 174H288L166 0H30Z" />
<glyph unicode="y" horiz-adv-x="615" d="M128 -200V-100H401Q429 -100 429 -70V68H412Q404 50 386 33T338 4T262 -8Q205 -8 161 17T93 89T69 198V494H183V207Q183 147 212 118T296 89Q357 89 392 129T428 244V494H542V-94Q542 -143 514 -171T438 -200H128Z" />
<glyph unicode="z" horiz-adv-x="519" d="M54 0V138L336 384V399H64V494H460V356L178 110V95H468V0H54Z" />
<glyph unicode="{" horiz-adv-x="458" d="M274 -243Q232 -243 205 -216T178 -147V166Q178 200 145 200H37V310H145Q178 310 178 344V657Q178 699 205 726T274 753H441V655H316Q289 655 289 625V343Q289 309 268 286T212 263H198V247H212Q247 247 268 224T289 167V-115Q289
-145 316 -145H441V-243H274Z" />
<glyph unicode="|" horiz-adv-x="253" d="M69 -246V806H184V-246H69Z" />
<glyph unicode="}" horiz-adv-x="458" d="M17 -243V-145H141Q168 -145 168 -115V167Q168 201 189 224T246 247H259V263H246Q210 263 189 286T168 343V625Q168 655 141 655H17V753H183Q225 753 252 726T279 657V344Q279 310 313 310H421V200H313Q279 200 279 166V-147Q279
-189 252 -216T183 -243H17Z" />
<glyph unicode="~" horiz-adv-x="620" d="M117 245L53 329L166 415Q186 431 207 441T257 452Q286 452 304 440T337 408Q350 389 358 381T379 373Q391 373 401 379T422 394L502 455L566 371L453 285Q434 270 412 259T362 248Q333 248 315 260T282 292Q269 312 262
319T240 327Q228 327 219 321T197 306L117 245Z" />
<glyph unicode="&#xa0;" horiz-adv-x="255" />
<glyph unicode="&#xa1;" horiz-adv-x="287" d="M85 -200V275H202V-200H85ZM144 508Q182 508 207 484T232 420Q232 381 207 357T144 332Q106 332 81 356T55 420Q55 459 80 483T144 508Z" />
<glyph unicode="&#xa2;" horiz-adv-x="598" d="M308 -14Q236 -14 178 16T86 103T52 240V254Q52 334 86 391T178 478T308 508Q378 508 428 483T510 415T551 317L440 294Q435 325 420 350T378 391T310 406Q269 406 237 389T186 336T167 252V242Q167 193 185 159T236
106T310 88Q371 88 402 119T443 201L554 175Q541 123 510 80T429 12T308 -14ZM258 -116V612H361V-116H258Z" />
<glyph unicode="&#xa3;" horiz-adv-x="636" d="M54 0V104H128V291H58V385H128V495Q128 599 188 656T352 714Q456 714 516 657T576 495V434H462V498Q462 551 433 580T352 610Q302 610 273 581T243 498V385H349V291H243V104H581V0H54Z" />
<glyph unicode="&#xa4;" horiz-adv-x="620" d="M112 81L41 152L102 213Q81 242 71 276T60 350Q60 388 70 423T102 487L41 548L112 619L173 558Q202 578 236 589T310 600Q348 600 383 589T447 558L508 619L579 548L518 487Q538 458 549 423T560 350Q560 311 549
277T518 213L579 152L508 81L447 142Q418 121 383 111T310 100Q271 100 237 110T173 142L112 81ZM310 199Q352 199 386 219T440 273T461 350Q461 393 441 427T386 481T310 501Q268 501 234 481T180 427T159 350Q159 308 179 274T234 219T310 199Z" />
<glyph unicode="&#xa5;" horiz-adv-x="620" d="M250 0V271L230 281L3 700H140L302 393H318L480 700H617L390 281L370 271V0H250ZM89 117V210H531V117H89ZM89 265V359H531V265H89Z" />
<glyph unicode="&#xa6;" horiz-adv-x="253" d="M69 366V806H184V366H69ZM69 -246V194H184V-246H69Z" />
<glyph unicode="&#xa7;" horiz-adv-x="480" d="M244 -14Q146 -14 90 40T33 184V200H133V187Q133 138 160 109T243 80Q289 80 312 98T335 151Q335 184 313 201T234 230Q149 245 102 283T55 391Q55 415 61 435T78 473Q55 507 55 552V558Q55 607 79 642T143 695T235
714Q321 714 375 670T429 549V525H330V540Q330 563 320 581T290 610T238 620Q201 620 179 604T157 558Q157 522 187 506T266 481Q354 465 395 427T437 323Q437 273 417 237Q427 221 431 202T436 162V154Q436 80 387 33T244 -14ZM330 303Q332 306 332 309T333 319Q333
347 312 364T234 392Q215 395 197 400T162 412Q158 404 158 391Q158 359 187 344T265 320Q286 316 300 313T330 303Z" />
<glyph unicode="&#xa8;" horiz-adv-x="440" d="M321 553Q289 553 267 573T245 628Q245 663 267 683T321 703Q354 703 375 683T396 628Q396 594 375 574T321 553ZM119 553Q87 553 65 573T43 628Q43 663 65 683T119 703Q152 703 173 683T195 628Q195 594 174 574T119 553Z" />
<glyph unicode="&#xa9;" horiz-adv-x="716" d="M349 -12Q259 -12 192 23T89 126T52 291V409Q52 506 88 573T192 676T349 712H367Q458 712 524 677T627 574T664 409V291Q664 194 628 127T525 24T367 -12H349ZM351 76H366Q463 76 516 130T570 290V410Q570 516 517
570T366 624H351Q253 624 200 570T147 410V290Q147 184 200 130T351 76ZM361 149Q296 149 258 188T219 301V400Q219 474 257 513T361 553Q431 553 465 514T499 412V397H411V418Q411 441 400 455T361 470Q336 470 323 456T309 416V285Q309 260 323 246T361 232Q386
232 398 246T411 285V305H499V290Q499 227 466 188T361 149Z" />
<glyph unicode="&#xaa;" horiz-adv-x="419" d="M164 340Q109 340 72 368T35 451Q35 504 72 532T167 560H262V577Q262 606 247 623T197 641Q164 641 147 625T123 586L48 611Q59 651 96 680T200 709Q266 709 306 676T347 574V438Q347 417 366 417H399V350H338Q312
350 297 362T279 396H267Q263 386 252 373T219 350T164 340ZM179 409Q218 409 240 428T262 487V498H175Q151 498 136 486T120 455Q120 434 136 422T179 409Z" />
<glyph unicode="&#xab;" horiz-adv-x="711" d="M637 9L344 185V310L637 486H643V363L452 256V240L643 133V9H637ZM345 9L52 185V310L345 486H351V363L160 256V240L351 133V9H345Z" />
<glyph unicode="&#xac;" horiz-adv-x="620" d="M418 175V298H100V402H520V175H418Z" />
<glyph unicode="&#xad;" horiz-adv-x="438" d="M71 204V307H367V204H71Z" />
<glyph unicode="&#xae;" horiz-adv-x="520" d="M260 298Q200 298 153 324T78 398T50 506Q50 567 77 614T152 687T260 714Q320 714 367 688T442 614T470 506Q470 445 443 398T368 325T260 298ZM260 339Q335 339 381 384T427 506Q427 581 381 627T260 673Q185 673
139 628T93 506Q93 431 139 385T260 339ZM188 397V619H273Q310 619 329 601T348 559Q348 539 339 525T308 503V493Q325 492 332 482T340 456V397H299V457Q299 478 278 478H229V397H188ZM229 516H273Q290 516 298 526T307 549Q307 563 299 572T273 582H229V516Z"
/>
<glyph unicode="&#xaf;" horiz-adv-x="410" d="M43 568V660H367V568H43Z" />
<glyph unicode="&#xb0;" horiz-adv-x="391" d="M195 397Q150 397 113 417T55 474T33 556Q33 602 54 638T113 694T195 714Q241 714 278 694T336 638T358 556Q358 510 337 474T278 418T195 397ZM195 486Q226 486 245 505T265 556Q265 587 246 606T195 625Q165 625
145 607T125 556Q125 525 145 506T195 486Z" />
<glyph unicode="&#xb1;" horiz-adv-x="620" d="M256 159V299H101V403H256V543H364V403H519V299H364V159H256ZM101 0V104H519V0H101Z" />
<glyph unicode="&#xb2;" horiz-adv-x="365" d="M26 350V391Q26 449 58 483T159 532Q206 543 228 557T250 595Q250 617 232 629T186 642Q159 642 139 628T116 580L30 586Q35 648 78 680T186 712Q252 712 294 680T336 594Q336 540 299 513T198 472Q155 462 137 451T118
420H334V350H26Z" />
<glyph unicode="&#xb3;" horiz-adv-x="366" d="M183 338Q117 338 72 370T22 461L107 469Q110 441 131 425T183 408Q215 408 233 424T252 463Q252 488 234 500T181 513H116V576L210 618V631H29V700H336V626L225 572V559Q278 557 308 533T338 460Q338 424 318 397T262
354T183 338Z" />
<glyph unicode="&#xb4;" horiz-adv-x="292" d="M43 553L118 698H249L145 553H43Z" />
<glyph unicode="&#xb5;" horiz-adv-x="623" d="M69 -200V494H184V206Q184 149 213 119T296 89Q357 89 390 127T423 237V494H537V125Q537 95 565 95H607V0H526Q490 0 468 18T443 70V76H426Q413 41 379 17T288 -8Q253 -8 232 1T197 23H180V-200H69Z" />
<glyph unicode="&#xb6;" horiz-adv-x="605" d="M256 0V289H233Q170 289 122 315T46 385T19 489V500Q19 560 47 605T124 675T237 700H535V0H436V606H355V0H256ZM228 383H256V606H228Q178 606 148 577T118 498V492Q118 443 149 413T228 383Z" />
<glyph unicode="&#xb7;" horiz-adv-x="210" d="M106 198Q68 198 43 223T17 287Q17 325 42 350T106 375Q144 375 169 350T194 286Q194 247 169 223T106 198Z" />
<glyph unicode="&#xb8;" horiz-adv-x="327" d="M156 -212Q124 -212 95 -206T43 -190L65 -121Q83 -128 104 -133T151 -139Q171 -139 184 -132T198 -109Q198 -95 186 -88T149 -81H111L119 20H198L193 -41Q232 -41 257 -61T283 -122Q283 -153 265 -173T218 -202T156 -212Z" />
<glyph unicode="&#xb9;" horiz-adv-x="259" d="M132 350V625H119L96 544H17L65 700H217V350H132Z" />
<glyph unicode="&#xba;" horiz-adv-x="436" d="M218 340Q135 340 85 388T34 525Q34 613 84 661T218 709Q301 709 352 661T403 525Q403 437 352 389T218 340ZM218 410Q263 410 289 439T316 525Q316 580 290 609T218 639Q174 639 147 610T120 525Q120 469 147 440T218 410Z" />
<glyph unicode="&#xbb;" horiz-adv-x="711" d="M360 9V133L551 240V256L360 363V486H366L659 310V185L366 9H360ZM68 9V133L259 240V256L68 363V486H74L367 310V185L74 9H68Z" />
<glyph unicode="&#xbc;" horiz-adv-x="826" d="M132 350V625H119L96 544H17L65 700H217V350H132ZM138 -10L76 40L619 710L681 660L138 -10ZM660 0V74H455V156L597 350H746V144H810V74H746V0H660ZM548 144H660V290H646L548 156V144Z" />
<glyph unicode="&#xbd;" horiz-adv-x="824" d="M132 350V625H119L96 544H17L65 700H217V350H132ZM138 -10L76 40L619 710L681 660L138 -10ZM485 0V41Q485 99 517 133T618 182Q665 193 687 207T709 245Q709 267 691 279T645 292Q618 292 598 278T575 230L489 236Q494
298 537 330T645 362Q711 362 753 330T795 244Q795 190 758 163T657 122Q614 112 596 101T577 70H793V0H485Z" />
<glyph unicode="&#xbe;" horiz-adv-x="892" d="M183 338Q117 338 72 370T22 461L107 469Q110 441 131 425T183 408Q215 408 233 424T252 463Q252 488 234 500T181 513H116V576L210 618V631H29V700H336V626L225 572V559Q278 557 308 533T338 460Q338 424 318 397T262
354T183 338ZM203 -10L141 40L684 710L746 660L203 -10ZM725 0V74H520V156L662 350H811V144H875V74H811V0H725ZM613 144H725V290H711L613 156V144Z" />
<glyph unicode="&#xbf;" horiz-adv-x="579" d="M288 -214Q217 -214 162 -189T75 -117T43 -12Q43 47 65 85T120 148T190 189L210 198Q228 206 235 217T243 252V275H363V247Q363 197 344 166T278 113L258 104Q212 83 187 58T161 -12Q161 -44 177 -66T222 -100T288
-112Q326 -112 357 -100T406 -61T424 4V29H542V5Q542 -63 509 -112T418 -187T288 -214ZM299 508Q337 508 362 484T388 420Q388 381 363 357T299 332Q262 332 237 356T211 420Q211 459 236 483T299 508Z" />
<glyph unicode="&#xc0;" horiz-adv-x="633" d="M20 0L212 700H421L613 0H489L447 160H186L144 0H20ZM214 270H419L325 625H308L214 270ZM286 759L185 887H320L389 759H286Z" />
<glyph unicode="&#xc1;" horiz-adv-x="633" d="M20 0L212 700H421L613 0H489L447 160H186L144 0H20ZM214 270H419L325 625H308L214 270ZM243 758L313 886H447L347 758H243Z" />
<glyph unicode="&#xc2;" horiz-adv-x="633" d="M20 0L212 700H421L613 0H489L447 160H186L144 0H20ZM214 270H419L325 625H308L214 270ZM128 758L246 886H387L504 758H379L325 826H308L253 758H128Z" />
<glyph unicode="&#xc3;" horiz-adv-x="633" d="M20 0L212 700H421L613 0H489L447 160H186L144 0H20ZM214 270H419L325 625H308L214 270ZM199 749L139 795L171 840Q188 863 208 876T255 889Q279 889 294 881T327 858Q338 848 348 840T373 832Q388 832 397 841T415
861L434 888L494 841L462 797Q446 774 426 761T379 748Q355 748 340 756T306 779Q296 788 286 796T261 805Q246 805 237 796T218 775L199 749Z" />
<glyph unicode="&#xc4;" horiz-adv-x="633" d="M20 0L212 700H421L613 0H489L447 160H186L144 0H20ZM214 270H419L325 625H308L214 270ZM424 755Q392 755 371 775T349 830Q349 865 370 885T424 905Q457 905 478 885T500 830Q500 796 479 776T424 755ZM208 755Q176
755 154 775T132 830Q132 865 154 885T208 905Q241 905 262 885T284 830Q284 796 263 776T208 755Z" />
<glyph unicode="&#xc5;" horiz-adv-x="633" d="M20 0L212 700H421L613 0H489L447 160H186L144 0H20ZM214 270H419L325 625H308L214 270ZM316 748Q273 748 243 776T213 847Q213 890 243 918T316 946Q360 946 389 919T419 847Q419 802 388 775T316 748ZM316 814Q332
814 340 823T349 847Q349 861 341 870T316 880Q302 880 293 871T283 847Q283 833 292 824T316 814Z" />
<glyph unicode="&#xc6;" horiz-adv-x="823" d="M378 0V700H782V591H497V407H754V298H497V109H788V0H378ZM20 0L266 700H378V636H362L235 270H378V160H199L143 0H20Z" />
<glyph unicode="&#xc7;" horiz-adv-x="643" d="M332 -14Q204 -14 128 58T52 267V433Q52 569 128 641T332 714Q460 714 529 644T599 452V446H481V455Q481 521 445 563T332 606Q258 606 216 561T173 435V265Q173 186 215 140T332 94Q408 94 444 136T481 245V262H599V248Q599
126 530 56T332 -14ZM332 -212Q300 -212 271 -206T219 -190L241 -121Q259 -128 280 -133T327 -139Q347 -139 360 -132T374 -109Q374 -95 362 -88T325 -81H287L295 20H374L369 -41Q408 -41 433 -61T459 -122Q459 -153 441 -173T394 -202T332 -212Z" />
<glyph unicode="&#xc8;" horiz-adv-x="556" d="M69 0V700H515V591H190V407H487V298H190V109H520V0H69ZM267 759L166 887H301L370 759H267Z" />
<glyph unicode="&#xc9;" horiz-adv-x="556" d="M69 0V700H515V591H190V407H487V298H190V109H520V0H69ZM224 758L294 886H428L328 758H224Z" />
<glyph unicode="&#xca;" horiz-adv-x="556" d="M69 0V700H515V591H190V407H487V298H190V109H520V0H69ZM109 758L227 886H368L485 758H360L306 826H289L234 758H109Z" />
<glyph unicode="&#xcb;" horiz-adv-x="556" d="M69 0V700H515V591H190V407H487V298H190V109H520V0H69ZM405 755Q373 755 352 775T330 830Q330 865 351 885T405 905Q438 905 459 885T481 830Q481 796 460 776T405 755ZM189 755Q157 755 135 775T113 830Q113 865
135 885T189 905Q222 905 243 885T265 830Q265 796 244 776T189 755Z" />
<glyph unicode="&#xcc;" horiz-adv-x="259" d="M69 0V700H190V0H69ZM355 759L254 887H389L458 759H355Z" />
<glyph unicode="&#xcd;" horiz-adv-x="259" d="M69 0V700H190V0H69ZM56 758L126 886H260L160 758H56Z" />
<glyph unicode="&#xce;" horiz-adv-x="259" d="M69 0V700H190V0H69ZM197 758L315 886H456L573 758H448L394 826H377L322 758H197Z" />
<glyph unicode="&#xcf;" horiz-adv-x="259" d="M69 0V700H190V0H69ZM493 755Q461 755 440 775T418 830Q418 865 439 885T493 905Q526 905 547 885T569 830Q569 796 548 776T493 755ZM277 755Q245 755 223 775T201 830Q201 865 223 885T277 905Q310 905 331 885T353
830Q353 796 332 776T277 755Z" />
<glyph unicode="&#xd0;" horiz-adv-x="665" d="M46 0V106H140V594H46V700H331Q471 700 545 629T619 416V284Q619 142 545 71T331 0H46ZM260 109H332Q417 109 458 153T499 280V419Q499 504 458 547T332 591H260V109ZM302 308V391H633V308H302Z" />
<glyph unicode="&#xd1;" horiz-adv-x="668" d="M69 0V700H299L464 81H480V700H599V0H370L205 619H188V0H69ZM216 749L156 795L188 840Q205 863 225 876T272 889Q296 889 311 881T344 858Q355 848 365 840T390 832Q405 832 414 841T432 861L451 888L511 841L479
797Q463 774 443 761T396 748Q372 748 357 756T323 779Q313 788 303 796T278 805Q263 805 254 796T235 775L216 749Z" />
<glyph unicode="&#xd2;" horiz-adv-x="674" d="M337 -14Q207 -14 130 58T52 267V433Q52 569 129 641T337 714Q468 714 545 642T622 433V267Q622 131 545 59T337 -14ZM337 94Q415 94 458 139T502 263V437Q502 515 459 560T337 606Q260 606 217 561T173 437V263Q173
185 216 140T337 94ZM307 759L206 887H341L410 759H307Z" />
<glyph unicode="&#xd3;" horiz-adv-x="674" d="M337 -14Q207 -14 130 58T52 267V433Q52 569 129 641T337 714Q468 714 545 642T622 433V267Q622 131 545 59T337 -14ZM337 94Q415 94 458 139T502 263V437Q502 515 459 560T337 606Q260 606 217 561T173 437V263Q173
185 216 140T337 94ZM264 758L334 886H468L368 758H264Z" />
<glyph unicode="&#xd4;" horiz-adv-x="674" d="M337 -14Q207 -14 130 58T52 267V433Q52 569 129 641T337 714Q468 714 545 642T622 433V267Q622 131 545 59T337 -14ZM337 94Q415 94 458 139T502 263V437Q502 515 459 560T337 606Q260 606 217 561T173 437V263Q173
185 216 140T337 94ZM149 758L267 886H408L525 758H400L346 826H329L274 758H149Z" />
<glyph unicode="&#xd5;" horiz-adv-x="674" d="M337 -14Q207 -14 130 58T52 267V433Q52 569 129 641T337 714Q468 714 545 642T622 433V267Q622 131 545 59T337 -14ZM337 94Q415 94 458 139T502 263V437Q502 515 459 560T337 606Q260 606 217 561T173 437V263Q173
185 216 140T337 94ZM219 749L159 795L191 840Q208 863 228 876T275 889Q299 889 314 881T347 858Q358 848 368 840T393 832Q408 832 417 841T435 861L454 888L514 841L482 797Q466 774 446 761T399 748Q375 748 360 756T326 779Q316 788 306 796T281 805Q266 805
257 796T238 775L219 749Z" />
<glyph unicode="&#xd6;" horiz-adv-x="674" d="M337 -14Q207 -14 130 58T52 267V433Q52 569 129 641T337 714Q468 714 545 642T622 433V267Q622 131 545 59T337 -14ZM337 94Q415 94 458 139T502 263V437Q502 515 459 560T337 606Q260 606 217 561T173 437V263Q173
185 216 140T337 94ZM445 755Q413 755 392 775T370 830Q370 865 391 885T445 905Q478 905 499 885T521 830Q521 796 500 776T445 755ZM229 755Q197 755 175 775T153 830Q153 865 175 885T229 905Q262 905 283 885T305 830Q305 796 284 776T229 755Z" />
<glyph unicode="&#xd7;" horiz-adv-x="620" d="M174 141L100 215L236 350L100 485L174 559L310 424L446 559L520 485L384 350L520 215L446 141L310 276L174 141Z" />
<glyph unicode="&#xd8;" horiz-adv-x="674" d="M337 -14Q207 -14 130 58T52 267V433Q52 569 129 641T337 714Q468 714 545 642T622 433V267Q622 131 545 59T337 -14ZM337 94Q415 94 458 139T502 263V437Q502 515 459 560T337 606Q260 606 217 561T173 437V263Q173
185 216 140T337 94ZM205 -91L128 -60L471 779L548 748L205 -91Z" />
<glyph unicode="&#xd9;" horiz-adv-x="671" d="M335 -14Q251 -14 191 16T98 105T65 243V700H185V240Q185 170 224 132T335 94Q408 94 446 132T485 240V700H605V243Q605 163 573 105T480 17T335 -14ZM305 759L204 887H339L408 759H305Z" />
<glyph unicode="&#xda;" horiz-adv-x="671" d="M335 -14Q251 -14 191 16T98 105T65 243V700H185V240Q185 170 224 132T335 94Q408 94 446 132T485 240V700H605V243Q605 163 573 105T480 17T335 -14ZM262 758L332 886H466L366 758H262Z" />
<glyph unicode="&#xdb;" horiz-adv-x="671" d="M335 -14Q251 -14 191 16T98 105T65 243V700H185V240Q185 170 224 132T335 94Q408 94 446 132T485 240V700H605V243Q605 163 573 105T480 17T335 -14ZM147 758L265 886H406L523 758H398L344 826H327L272 758H147Z" />
<glyph unicode="&#xdc;" horiz-adv-x="671" d="M335 -14Q251 -14 191 16T98 105T65 243V700H185V240Q185 170 224 132T335 94Q408 94 446 132T485 240V700H605V243Q605 163 573 105T480 17T335 -14ZM443 755Q411 755 390 775T368 830Q368 865 389 885T443 905Q476
905 497 885T519 830Q519 796 498 776T443 755ZM227 755Q195 755 173 775T151 830Q151 865 173 885T227 905Q260 905 281 885T303 830Q303 796 282 776T227 755Z" />
<glyph unicode="&#xdd;" horiz-adv-x="621" d="M250 0V247L9 700H144L302 391H319L477 700H611L370 247V0H250ZM237 758L307 886H441L341 758H237Z" />
<glyph unicode="&#xde;" horiz-adv-x="603" d="M190 141V251H340Q392 251 423 279T455 355V365Q455 414 424 442T340 470H190V579H352Q418 579 468 553T547 480T576 367V354Q576 289 547 241T467 167T352 141H190ZM69 0V700H190V0H69Z" />
<glyph unicode="&#xdf;" horiz-adv-x="645" d="M422 -14Q360 -14 317 7T248 61T215 131L318 163Q327 124 352 102T422 79Q462 79 484 100T507 156Q507 178 497 193T467 218T423 238L382 253Q340 269 320 293T300 349Q300 384 317 406T366 450Q392 467 412 490T433
547Q433 579 406 598T335 617Q301 617 267 600T210 544T187 437V0H73V433Q73 522 106 585T199 681T335 714Q396 714 444 693T519 635T546 550Q546 507 531 477T490 425T437 385Q427 380 422 374T417 361Q417 345 444 335L472 324Q514 309 547 288T600 236T620 155Q620
106 596 68T528 8T422 -14Z" />
<glyph unicode="&#xe0;" horiz-adv-x="577" d="M226 -14Q174 -14 132 4T66 58T41 144Q41 194 65 228T133 279T231 297H374V327Q374 366 350 390T275 415Q225 415 200 392T166 331L60 366Q72 405 98 437T169 488T277 508Q374 508 429 460T485 319V125Q485 95 513
95H555V0H474Q438 0 415 18T392 67V69H375Q369 55 354 35T309 1T226 -14ZM245 80Q302 80 338 112T374 200V210H238Q201 210 178 194T155 147Q155 117 179 99T245 80ZM250 555L146 700H277L352 555H250Z" />
<glyph unicode="&#xe1;" horiz-adv-x="577" d="M226 -14Q174 -14 132 4T66 58T41 144Q41 194 65 228T133 279T231 297H374V327Q374 366 350 390T275 415Q225 415 200 392T166 331L60 366Q72 405 98 437T169 488T277 508Q374 508 429 460T485 319V125Q485 95 513
95H555V0H474Q438 0 415 18T392 67V69H375Q369 55 354 35T309 1T226 -14ZM245 80Q302 80 338 112T374 200V210H238Q201 210 178 194T155 147Q155 117 179 99T245 80ZM210 553L285 698H416L312 553H210Z" />
<glyph unicode="&#xe2;" horiz-adv-x="577" d="M226 -14Q174 -14 132 4T66 58T41 144Q41 194 65 228T133 279T231 297H374V327Q374 366 350 390T275 415Q225 415 200 392T166 331L60 366Q72 405 98 437T169 488T277 508Q374 508 429 460T485 319V125Q485 95 513
95H555V0H474Q438 0 415 18T392 67V69H375Q369 55 354 35T309 1T226 -14ZM245 80Q302 80 338 112T374 200V210H238Q201 210 178 194T155 147Q155 117 179 99T245 80ZM94 553L213 698H350L469 553H351L290 629H273L212 553H94Z" />
<glyph unicode="&#xe3;" horiz-adv-x="577" d="M226 -14Q174 -14 132 4T66 58T41 144Q41 194 65 228T133 279T231 297H374V327Q374 366 350 390T275 415Q225 415 200 392T166 331L60 366Q72 405 98 437T169 488T277 508Q374 508 429 460T485 319V125Q485 95 513
95H555V0H474Q438 0 415 18T392 67V69H375Q369 55 354 35T309 1T226 -14ZM245 80Q302 80 338 112T374 200V210H238Q201 210 178 194T155 147Q155 117 179 99T245 80ZM170 543L105 583L138 640Q152 665 172 676T218 688Q239 688 255 680T288 655Q298 646 308 638T331
629Q346 629 354 638T370 658L388 687L452 646L420 590Q406 566 386 554T340 542Q318 542 302 550T269 574Q260 584 250 592T226 600Q212 600 204 591T188 572L170 543Z" />
<glyph unicode="&#xe4;" horiz-adv-x="577" d="M226 -14Q174 -14 132 4T66 58T41 144Q41 194 65 228T133 279T231 297H374V327Q374 366 350 390T275 415Q225 415 200 392T166 331L60 366Q72 405 98 437T169 488T277 508Q374 508 429 460T485 319V125Q485 95 513
95H555V0H474Q438 0 415 18T392 67V69H375Q369 55 354 35T309 1T226 -14ZM245 80Q302 80 338 112T374 200V210H238Q201 210 178 194T155 147Q155 117 179 99T245 80ZM382 553Q350 553 328 573T306 628Q306 663 328 683T382 703Q415 703 436 683T457 628Q457 594
436 574T382 553ZM180 553Q148 553 126 573T104 628Q104 663 126 683T180 703Q213 703 234 683T256 628Q256 594 235 574T180 553Z" />
<glyph unicode="&#xe5;" horiz-adv-x="577" d="M226 -14Q174 -14 132 4T66 58T41 144Q41 194 65 228T133 279T231 297H374V327Q374 366 350 390T275 415Q225 415 200 392T166 331L60 366Q72 405 98 437T169 488T277 508Q374 508 429 460T485 319V125Q485 95 513
95H555V0H474Q438 0 415 18T392 67V69H375Q369 55 354 35T309 1T226 -14ZM245 80Q302 80 338 112T374 200V210H238Q201 210 178 194T155 147Q155 117 179 99T245 80ZM281 540Q238 540 208 568T178 639Q178 682 208 710T281 738Q325 738 354 710T384 639Q384 594
353 567T281 540ZM281 606Q297 606 305 615T314 639Q314 653 306 662T281 672Q267 672 258 663T248 639Q248 624 257 615T281 606Z" />
<glyph unicode="&#xe6;" horiz-adv-x="887" d="M625 -14Q553 -14 500 21T417 117T387 251Q387 324 416 382T497 474T616 508Q688 508 738 476T814 389T841 265V209H490Q493 155 528 121T619 86Q673 86 701 109T743 158L829 98Q810 70 784 44T719 2T625 -14ZM250
79Q307 79 342 112T378 201V209H243Q202 209 178 193T154 147Q154 116 179 98T250 79ZM238 -14Q152 -14 97 26T41 142Q41 219 95 257T235 295H378V327Q378 365 351 390T273 415Q223 415 196 391T157 331L55 366Q69 405 96 437T167 488T273 508Q335 508 373 488T436
434H462L440 259L450 81H423Q413 63 392 41T334 3T238 -14ZM491 295H728Q727 348 696 378T612 408Q558 408 526 378T491 295Z" />
<glyph unicode="&#xe7;" horiz-adv-x="589" d="M304 -14Q232 -14 174 16T83 103T49 240V254Q49 334 82 391T174 478T304 508Q375 508 425 483T507 415T547 317L436 294Q432 325 417 350T375 391T307 406Q266 406 234 389T183 336T164 252V242Q164 193 182 159T233
106T307 88Q368 88 399 119T439 201L550 175Q538 123 507 80T426 12T304 -14ZM305 -212Q273 -212 244 -206T192 -190L214 -121Q232 -128 253 -133T300 -139Q320 -139 333 -132T347 -109Q347 -95 335 -88T298 -81H260L268 20H347L342 -41Q381 -41 406 -61T432 -122Q432
-153 414 -173T367 -202T305 -212Z" />
<glyph unicode="&#xe8;" horiz-adv-x="581" d="M299 -14Q225 -14 169 17T81 106T49 241V253Q49 331 80 388T167 476T296 508Q368 508 422 477T506 388T536 255V214H165Q167 156 206 121T302 86Q358 86 385 110T426 166L521 117Q507 90 481 60T410 8T299 -14ZM166
301H419Q415 350 382 379T295 408Q240 408 207 379T166 301ZM264 555L160 700H291L366 555H264Z" />
<glyph unicode="&#xe9;" horiz-adv-x="581" d="M299 -14Q225 -14 169 17T81 106T49 241V253Q49 331 80 388T167 476T296 508Q368 508 422 477T506 388T536 255V214H165Q167 156 206 121T302 86Q358 86 385 110T426 166L521 117Q507 90 481 60T410 8T299 -14ZM166
301H419Q415 350 382 379T295 408Q240 408 207 379T166 301ZM225 553L300 698H431L327 553H225Z" />
<glyph unicode="&#xea;" horiz-adv-x="581" d="M299 -14Q225 -14 169 17T81 106T49 241V253Q49 331 80 388T167 476T296 508Q368 508 422 477T506 388T536 255V214H165Q167 156 206 121T302 86Q358 86 385 110T426 166L521 117Q507 90 481 60T410 8T299 -14ZM166
301H419Q415 350 382 379T295 408Q240 408 207 379T166 301ZM108 553L227 698H364L483 553H365L304 629H287L226 553H108Z" />
<glyph unicode="&#xeb;" horiz-adv-x="581" d="M299 -14Q225 -14 169 17T81 106T49 241V253Q49 331 80 388T167 476T296 508Q368 508 422 477T506 388T536 255V214H165Q167 156 206 121T302 86Q358 86 385 110T426 166L521 117Q507 90 481 60T410 8T299 -14ZM166
301H419Q415 350 382 379T295 408Q240 408 207 379T166 301ZM397 553Q365 553 343 573T321 628Q321 663 343 683T397 703Q430 703 451 683T472 628Q472 594 451 574T397 553ZM195 553Q163 553 141 573T119 628Q119 663 141 683T195 703Q228 703 249 683T271 628Q271
594 250 574T195 553Z" />
<glyph unicode="&#xec;" horiz-adv-x="261" d="M73 0V494H188V0H73ZM355 555L251 700H382L457 555H355Z" />
<glyph unicode="&#xed;" horiz-adv-x="261" d="M73 0V494H188V0H73ZM60 553L135 698H266L162 553H60Z" />
<glyph unicode="&#xee;" horiz-adv-x="261" d="M73 0V494H188V0H73ZM199 553L318 698H455L574 553H456L395 629H378L317 553H199Z" />
<glyph unicode="&#xef;" horiz-adv-x="261" d="M73 0V494H188V0H73ZM487 553Q455 553 433 573T411 628Q411 663 433 683T487 703Q520 703 541 683T562 628Q562 594 541 574T487 553ZM285 553Q253 553 231 573T209 628Q209 663 231 683T285 703Q318 703 339 683T361
628Q361 594 340 574T285 553Z" />
<glyph unicode="&#xf0;" horiz-adv-x="616" d="M308 -14Q231 -15 173 17T82 107T49 241V251Q49 326 80 381T162 468T276 500Q328 501 363 484T422 438H439Q419 517 356 575T192 668L228 760Q339 724 414 656T527 494T566 284Q566 186 534 120T443 21T308 -14ZM307
88Q349 88 381 106T431 160T450 244V249Q450 323 410 364T307 405Q244 405 204 364T164 249V244Q164 171 204 130T307 88ZM284 533L230 574L375 774L430 733L284 533Z" />
<glyph unicode="&#xf1;" horiz-adv-x="615" d="M73 0V494H186V425H203Q216 453 250 478T353 503Q410 503 454 477T522 405T547 296V0H432V287Q432 347 403 376T319 406Q258 406 223 366T188 250V0H73ZM193 543L128 583L161 640Q175 665 195 676T241 688Q262 688
278 680T311 655Q321 646 331 638T354 629Q369 629 377 638T393 658L411 687L475 646L443 590Q429 566 409 554T363 542Q341 542 325 550T292 574Q283 584 273 592T249 600Q235 600 227 591T211 572L193 543Z" />
<glyph unicode="&#xf2;" horiz-adv-x="613" d="M307 -14Q233 -14 175 16T83 103T49 239V255Q49 334 82 391T174 478T307 508Q381 508 439 478T530 391T564 255V239Q564 160 531 104T439 17T307 -14ZM307 88Q370 88 410 128T450 242V252Q450 325 410 365T307 406Q244
406 204 366T164 252V242Q164 169 204 129T307 88ZM275 555L171 700H302L377 555H275Z" />
<glyph unicode="&#xf3;" horiz-adv-x="613" d="M307 -14Q233 -14 175 16T83 103T49 239V255Q49 334 82 391T174 478T307 508Q381 508 439 478T530 391T564 255V239Q564 160 531 104T439 17T307 -14ZM307 88Q370 88 410 128T450 242V252Q450 325 410 365T307 406Q244
406 204 366T164 252V242Q164 169 204 129T307 88ZM236 553L311 698H442L338 553H236Z" />
<glyph unicode="&#xf4;" horiz-adv-x="613" d="M307 -14Q233 -14 175 16T83 103T49 239V255Q49 334 82 391T174 478T307 508Q381 508 439 478T530 391T564 255V239Q564 160 531 104T439 17T307 -14ZM307 88Q370 88 410 128T450 242V252Q450 325 410 365T307 406Q244
406 204 366T164 252V242Q164 169 204 129T307 88ZM119 553L238 698H375L494 553H376L315 629H298L237 553H119Z" />
<glyph unicode="&#xf5;" horiz-adv-x="613" d="M307 -14Q233 -14 175 16T83 103T49 239V255Q49 334 82 391T174 478T307 508Q381 508 439 478T530 391T564 255V239Q564 160 531 104T439 17T307 -14ZM307 88Q370 88 410 128T450 242V252Q450 325 410 365T307 406Q244
406 204 366T164 252V242Q164 169 204 129T307 88ZM195 543L130 583L163 640Q177 665 197 676T243 688Q264 688 280 680T313 655Q323 646 333 638T356 629Q371 629 379 638T395 658L413 687L477 646L445 590Q431 566 411 554T365 542Q343 542 327 550T294 574Q285
584 275 592T251 600Q237 600 229 591T213 572L195 543Z" />
<glyph unicode="&#xf6;" horiz-adv-x="613" d="M307 -14Q233 -14 175 16T83 103T49 239V255Q49 334 82 391T174 478T307 508Q381 508 439 478T530 391T564 255V239Q564 160 531 104T439 17T307 -14ZM307 88Q370 88 410 128T450 242V252Q450 325 410 365T307 406Q244
406 204 366T164 252V242Q164 169 204 129T307 88ZM408 553Q376 553 354 573T332 628Q332 663 354 683T408 703Q441 703 462 683T483 628Q483 594 462 574T408 553ZM206 553Q174 553 152 573T130 628Q130 663 152 683T206 703Q239 703 260 683T282 628Q282 594
261 574T206 553Z" />
<glyph unicode="&#xf7;" horiz-adv-x="620" d="M101 298V402H519V298H101ZM310 85Q276 85 253 108T229 165Q229 199 252 222T310 246Q344 246 367 223T391 165Q391 132 368 109T310 85ZM310 454Q276 454 253 477T229 535Q229 568 252 591T310 615Q344 615 367
592T391 535Q391 501 368 478T310 454Z" />
<glyph unicode="&#xf8;" horiz-adv-x="613" d="M307 -14Q233 -14 175 16T83 103T49 239V255Q49 334 82 391T174 478T307 508Q381 508 439 478T530 391T564 255V239Q564 160 531 104T439 17T307 -14ZM307 88Q370 88 410 128T450 242V252Q450 325 410 365T307 406Q244
406 204 366T164 252V242Q164 169 204 129T307 88ZM151 -69L86 -27L462 558L527 516L151 -69Z" />
<glyph unicode="&#xf9;" horiz-adv-x="615" d="M262 -8Q205 -8 161 17T93 89T69 198V494H183V207Q183 147 212 118T296 89Q357 89 392 129T428 244V494H542V0H430V69H413Q400 42 366 17T262 -8ZM274 555L170 700H301L376 555H274Z" />
<glyph unicode="&#xfa;" horiz-adv-x="615" d="M262 -8Q205 -8 161 17T93 89T69 198V494H183V207Q183 147 212 118T296 89Q357 89 392 129T428 244V494H542V0H430V69H413Q400 42 366 17T262 -8ZM235 553L310 698H441L337 553H235Z" />
<glyph unicode="&#xfb;" horiz-adv-x="615" d="M262 -8Q205 -8 161 17T93 89T69 198V494H183V207Q183 147 212 118T296 89Q357 89 392 129T428 244V494H542V0H430V69H413Q400 42 366 17T262 -8ZM118 553L237 698H374L493 553H375L314 629H297L236 553H118Z" />
<glyph unicode="&#xfc;" horiz-adv-x="615" d="M262 -8Q205 -8 161 17T93 89T69 198V494H183V207Q183 147 212 118T296 89Q357 89 392 129T428 244V494H542V0H430V69H413Q400 42 366 17T262 -8ZM406 553Q374 553 352 573T330 628Q330 663 352 683T406 703Q439
703 460 683T481 628Q481 594 460 574T406 553ZM204 553Q172 553 150 573T128 628Q128 663 150 683T204 703Q237 703 258 683T280 628Q280 594 259 574T204 553Z" />
<glyph unicode="&#xfd;" horiz-adv-x="615" d="M128 -200V-100H401Q429 -100 429 -70V68H412Q404 50 386 33T338 4T262 -8Q205 -8 161 17T93 89T69 198V494H183V207Q183 147 212 118T296 89Q357 89 392 129T428 244V494H542V-94Q542 -143 514 -171T438 -200H128ZM235
553L310 698H441L337 553H235Z" />
<glyph unicode="&#xfe;" horiz-adv-x="639" d="M73 -200V700H187V432H204Q216 452 235 469T286 497T364 508Q425 508 476 479T559 392T590 255V239Q590 159 559 102T477 16T364 -14Q318 -14 286 -3T235 25T204 62H187V-200H73ZM331 86Q394 86 434 126T475 242V252Q475
328 435 368T331 408Q269 408 228 368T186 252V242Q186 167 227 127T331 86Z" />
<glyph unicode="&#xff;" horiz-adv-x="615" d="M128 -200V-100H401Q429 -100 429 -70V68H412Q404 50 386 33T338 4T262 -8Q205 -8 161 17T93 89T69 198V494H183V207Q183 147 212 118T296 89Q357 89 392 129T428 244V494H542V-94Q542 -143 514 -171T438 -200H128ZM406
553Q374 553 352 573T330 628Q330 663 352 683T406 703Q439 703 460 683T481 628Q481 594 460 574T406 553ZM204 553Q172 553 150 573T128 628Q128 663 150 683T204 703Q237 703 258 683T280 628Q280 594 259 574T204 553Z" />
<glyph unicode="&#x2013;" horiz-adv-x="590" d="M71 204V307H519V204H71Z" />
<glyph unicode="&#x2014;" horiz-adv-x="894" d="M71 204V307H823V204H71Z" />
<glyph unicode="&#x2018;" horiz-adv-x="284" d="M206 714V650H169Q126 650 126 607V575H142Q179 575 204 553T229 495Q229 458 204 435T142 411Q104 411 80 435T56 498V608Q56 714 161 714H206Z" />
<glyph unicode="&#x2019;" horiz-adv-x="284" d="M78 411V475H115Q158 475 158 518V550H142Q105 550 80 572T55 630Q55 667 80 690T142 714Q180 714 204 690T228 627V517Q228 411 123 411H78Z" />
<glyph unicode="&#x201a;" horiz-adv-x="284" d="M78 -142V-78H115Q158 -78 158 -35V-3H142Q105 -3 80 19T55 77Q55 114 80 137T142 161Q180 161 204 137T228 74V-36Q228 -142 123 -142H78Z" />
<glyph unicode="&#x201c;" horiz-adv-x="492" d="M414 714V650H377Q334 650 334 607V575H350Q387 575 412 553T437 495Q437 458 412 435T350 411Q312 411 288 435T264 498V608Q264 714 369 714H414ZM206 714V650H169Q126 650 126 607V575H142Q179 575 204 553T229
495Q229 458 204 435T142 411Q104 411 80 435T56 498V608Q56 714 161 714H206Z" />
<glyph unicode="&#x201d;" horiz-adv-x="492" d="M78 411V475H115Q158 475 158 518V550H142Q105 550 80 572T55 630Q55 667 80 690T142 714Q180 714 204 690T228 627V517Q228 411 123 411H78ZM286 411V475H323Q366 475 366 518V550H350Q313 550 288 572T263 630Q263
667 288 690T350 714Q388 714 412 690T436 627V517Q436 411 331 411H286Z" />
<glyph unicode="&#x201e;" horiz-adv-x="492" d="M78 -142V-78H115Q158 -78 158 -35V-3H142Q105 -3 80 19T55 77Q55 114 80 137T142 161Q180 161 204 137T228 74V-36Q228 -142 123 -142H78ZM286 -142V-78H323Q366 -78 366 -35V-3H350Q313 -3 288 19T263 77Q263
114 288 137T350 161Q388 161 412 137T436 74V-36Q436 -142 331 -142H286Z" />
<glyph unicode="&#x2022;" horiz-adv-x="390" d="M195 118Q157 118 126 136T76 185T57 256Q57 295 75 326T124 375T195 393Q235 393 266 376T315 327T333 256Q333 215 315 184T265 136T195 118Z" />
<glyph unicode="&#x2039;" horiz-adv-x="475" d="M401 10L52 182V314L401 486H407V363L166 256V240L407 132V10H401Z" />
<glyph unicode="&#x203a;" horiz-adv-x="475" d="M68 10V132L309 240V256L68 363V486H74L423 314V182L74 10H68Z" />
</font>
</defs>
</svg>
