<?xml version="1.0" standalone="no"?>
<!DOCTYPE svg PUBLIC "-//W3C//DTD SVG 1.1//EN" "http://www.w3.org/Graphics/SVG/1.1/DTD/svg11.dtd">
<svg xmlns="http://www.w3.org/2000/svg">
<defs >
<font id="SpaceGrotesk" horiz-adv-x="559" ><font-face
    font-family="Space Grotesk Light Medium"
    units-per-em="1000"
    panose-1="0 0 0 0 0 0 0 0 0 0"
    ascent="984"
    descent="-292"
    alphabetic="0" />
<glyph unicode=" " horiz-adv-x="255" />
<glyph unicode="!" horiz-adv-x="276" d="M85 209V700H190V209H85ZM138 -14Q103 -14 80 9T56 68Q56 104 79 126T138 149Q173 149 196 126T220 68Q220 32 197 9T138 -14Z" />
<glyph unicode="&quot;" horiz-adv-x="470" d="M77 430V489H111Q152 489 152 530V562H137Q102 562 79 583T56 636Q56 671 79 692T137 714Q172 714 194 692T217 633V529Q217 430 118 430H77ZM274 430V489H308Q349 489 349 530V562H334Q299 562 276 583T253 636Q253
671 276 692T334 714Q369 714 391 692T414 633V529Q414 430 315 430H274Z" />
<glyph unicode="#" horiz-adv-x="632" d="M158 0V195H41V284H158V416H41V505H158V700H252V505H380V700H473V505H591V416H473V284H591V195H473V0H380V195H252V0H158ZM252 284H380V416H252V284Z" />
<glyph unicode="$" horiz-adv-x="609" d="M311 -14Q232 -14 171 14T76 96T41 229V254H148V229Q148 155 192 118T311 81Q386 81 424 112T462 194Q462 227 445 248T394 281T315 305L278 314Q211 330 162 353T86 416T59 516Q59 578 89 622T173 690T300 714Q373 714
430 689T521 615T555 492V456H448V492Q448 537 430 565T378 606T300 619Q236 619 201 593T166 519Q166 487 181 467T227 433T301 410L338 401Q406 386 458 363T539 299T569 196Q569 133 538 86T448 13T311 -14ZM261 -116V816H360V-116H261Z" />
<glyph unicode="%" horiz-adv-x="765" d="M141 -13L77 39L624 713L688 661L141 -13ZM574 -11Q500 -11 457 30T414 143V149Q414 221 457 262T574 304Q647 304 691 263T735 149V143Q735 72 692 31T574 -11ZM574 59Q610 59 630 81T651 139V153Q651 190 631 212T574
234Q539 234 519 212T498 153V139Q498 103 518 81T574 59ZM191 396Q117 396 74 437T30 550V557Q30 629 73 670T191 711Q264 711 307 670T351 557V550Q351 479 308 438T191 396ZM191 466Q226 466 246 488T267 547V561Q267 597 247 619T191 641Q155 641 135 619T114
561V547Q114 511 134 489T191 466Z" />
<glyph unicode="&amp;" horiz-adv-x="598" d="M242 0Q182 0 136 22T63 86T36 187Q36 231 52 263T95 316T155 348V361Q107 376 74 413T41 513Q41 574 68 615T142 678T246 700H364V613H263Q213 613 179 587T145 505Q145 467 161 444T204 409T263 397H380V496H483V397H578V310H483V0H242ZM259
87H380V310H259Q209 310 174 283T139 198Q139 141 175 114T259 87Z" />
<glyph unicode="&apos;" horiz-adv-x="273" d="M77 430V489H111Q152 489 152 530V562H137Q102 562 79 583T56 636Q56 671 79 692T137 714Q172 714 194 692T217 633V529Q217 430 118 430H77Z" />
<glyph unicode="(" horiz-adv-x="389" d="M380 -240Q276 -240 203 -204T93 -92T55 105V405Q55 525 92 601T203 714T380 750V662Q266 661 211 598T155 401V109Q155 -24 210 -87T380 -152V-240Z" />
<glyph unicode=")" horiz-adv-x="383" d="M3 -240V-152Q119 -151 174 -88T229 109V401Q229 534 174 597T3 662V750Q108 750 180 714T290 602T328 405V105Q328 -15 291 -91T181 -204T3 -240Z" />
<glyph unicode="*" horiz-adv-x="530" d="M45 448V512H127L197 501L202 513L145 555L87 613L132 658L190 601L232 543L244 548L233 619V700H297V619L286 548L298 543L340 601L398 658L443 613L386 555L328 513L333 501L403 512H485V448H403L333 459L328 447L386
405L443 347L398 302L340 360L298 418L286 413L297 342V261H233V342L244 413L232 418L190 360L132 302L87 347L145 405L202 447L197 459L127 448H45Z" />
<glyph unicode="+" horiz-adv-x="620" d="M261 141V303H101V397H261V559H359V397H519V303H359V141H261Z" />
<glyph unicode="," horiz-adv-x="273" d="M77 -136V-77H111Q152 -77 152 -36V-4H137Q102 -4 79 17T56 70Q56 105 79 126T137 148Q172 148 194 126T217 67V-37Q217 -136 118 -136H77Z" />
<glyph unicode="-" horiz-adv-x="443" d="M74 209V303H370V209H74Z" />
<glyph unicode="." horiz-adv-x="276" d="M138 -14Q103 -14 80 9T56 68Q56 104 79 126T138 149Q173 149 196 126T220 68Q220 32 197 9T138 -14Z" />
<glyph unicode="/" horiz-adv-x="379" d="M-8 -200L286 700H389L95 -200H-8Z" />
<glyph unicode="0" horiz-adv-x="645" d="M322 -14Q200 -14 128 55T55 265V435Q55 572 127 643T322 714Q445 714 517 643T590 435V265Q590 125 518 56T322 -14ZM322 80Q405 80 445 127T485 261V441Q485 527 442 573T322 620Q244 620 202 573T160 441V261Q160 173
200 127T322 80Z" />
<glyph unicode="1" horiz-adv-x="435" d="M257 0V626H241L126 390H15L170 700H362V0H257Z" />
<glyph unicode="2" horiz-adv-x="598" d="M48 0V79Q48 152 73 199T144 275T257 325L318 344Q359 357 388 376T434 423T450 490V494Q450 553 410 586T305 620Q238 620 197 584T155 478V462H51V477Q51 553 84 605T175 686T305 714Q377 714 433 687T522 611T555 496V487Q555
419 528 374T454 300T344 251L285 233Q238 219 210 203T168 163T154 104V94H549V0H48Z" />
<glyph unicode="3" horiz-adv-x="606" d="M304 -14Q227 -14 167 14T74 95T40 221V239H145V223Q145 157 188 119T304 80Q376 80 416 116T456 207V216Q456 255 437 279T386 314T314 326H187V447L433 592V606H57V700H547V558L312 418V404H355Q408 404 455 384T531
323T561 219V207Q561 140 529 91T439 14T304 -14Z" />
<glyph unicode="4" horiz-adv-x="630" d="M383 0V143H29V265L297 700H488V236H606V143H488V0H383ZM131 236H383V634H367L131 250V236Z" />
<glyph unicode="5" horiz-adv-x="599" d="M302 -14Q223 -14 165 15T76 97T44 220V231H151V221Q151 157 190 119T301 80Q374 80 414 120T454 228V237Q454 302 415 341T314 380Q280 380 258 370T222 344T199 315H66V700H535V605H171V399H187Q197 416 215 431T264
457T336 467Q398 467 448 441T529 363T559 238V227Q559 154 528 100T440 16T302 -14Z" />
<glyph unicode="6" horiz-adv-x="615" d="M311 -14Q235 -14 177 15T87 98T55 221V463Q55 545 87 601T179 685T316 714Q393 714 449 688T535 613T565 499H459Q459 551 425 585T316 620Q241 620 201 581T160 471V387H176Q193 411 231 433T341 455Q403 455 455 428T538
351T570 230V218Q570 149 537 97T446 15T311 -14ZM312 80Q382 80 423 118T465 220V228Q465 271 446 302T393 352T312 370Q267 370 233 352T179 303T160 228V220Q160 156 201 118T312 80Z" />
<glyph unicode="7" d="M141 0V25Q141 63 147 88T172 148L422 593V606H29V700H531V576L268 104Q256 82 251 65T246 21V0H141Z" />
<glyph unicode="8" horiz-adv-x="611" d="M306 -14Q225 -14 165 10T71 79T37 186V197Q37 247 56 279T104 330T158 355V371Q133 378 107 396T65 445T48 519V530Q48 586 80 627T171 691T306 714Q382 714 440 691T530 627T563 530V519Q563 476 547 446T505 397T454
371V355Q480 349 508 331T555 280T574 197V186Q574 125 541 80T447 10T306 -14ZM306 80Q382 80 425 109T469 192V200Q469 254 427 283T306 313Q228 313 185 284T142 200V192Q142 139 185 110T306 80ZM306 407Q377 407 417 434T458 510V518Q458 567 417 593T306
620Q235 620 194 594T153 518V510Q153 461 193 434T306 407Z" />
<glyph unicode="9" horiz-adv-x="615" d="M300 -14Q222 -14 166 12T80 87T50 201H157Q157 149 191 115T300 80Q375 80 415 120T455 229V313H439Q422 289 384 267T274 245Q213 245 161 272T78 349T46 470V482Q46 552 78 604T169 685T304 714Q381 714 438 685T528
603T560 479V237Q560 155 528 99T437 15T300 -14ZM303 330Q349 330 383 348T436 397T455 472V480Q455 545 414 582T303 620Q234 620 193 583T151 480V472Q151 429 169 398T222 348T303 330Z" />
<glyph unicode=":" horiz-adv-x="276" d="M138 -14Q103 -14 80 9T56 68Q56 104 79 126T138 149Q173 149 196 126T220 68Q220 32 197 9T138 -14ZM138 343Q103 343 80 366T56 425Q56 461 79 483T138 506Q173 506 196 483T220 425Q220 389 197 366T138 343Z" />
<glyph unicode=";" horiz-adv-x="276" d="M138 343Q103 343 80 366T56 425Q56 461 79 483T138 506Q173 506 196 483T220 425Q220 389 197 366T138 343ZM78 -136V-77H112Q153 -77 153 -36V-4H138Q103 -4 80 17T57 70Q57 105 80 126T138 148Q173 148 195 126T218
67V-37Q218 -136 119 -136H78Z" />
<glyph unicode="&lt;" horiz-adv-x="620" d="M520 130L100 285V415L520 570V467L202 358V342L520 233V130Z" />
<glyph unicode="=" horiz-adv-x="620" d="M101 384V478H519V384H101ZM101 222V316H519V222H101Z" />
<glyph unicode="&gt;" horiz-adv-x="620" d="M100 130V233L419 342V358L100 467V570L520 415V285L100 130Z" />
<glyph unicode="?" horiz-adv-x="579" d="M223 209V251Q223 299 241 329T305 380L327 390Q375 411 402 438T429 513Q429 548 411 572T362 609T291 622Q251 622 218 609T164 567T144 497V469H38V497Q38 565 71 614T162 688T291 714Q362 714 417 688T503 617T535
513Q535 455 514 417T458 354T386 313L364 303Q346 295 339 283T331 247V209H223ZM279 -14Q245 -14 222 9T198 68Q198 104 221 126T279 149Q315 149 338 127T361 68Q361 32 338 9T279 -14Z" />
<glyph unicode="@" horiz-adv-x="1020" d="M528 -200Q389 -200 287 -147T128 6T72 244V267Q72 405 126 504T279 656T513 709H534Q660 709 754 658T900 513T952 292V237Q952 121 908 61T778 0H732Q688 0 665 18T642 69V75H626Q618 54 602 35T559 3T490 -9Q429 -9
383 24T311 112T285 238V255Q285 325 310 380T379 468T483 501Q524 501 550 491T593 463T619 427H635V492H735V121Q735 106 741 99T763 91H771Q814 91 832 126T851 239V290Q851 392 814 465T707 577T532 616H516Q412 616 335 576T215 458T173 263V247Q173 132 217
53T342 -66T534 -107H736V-200H528ZM510 81Q566 81 600 123T635 241V252Q635 327 601 369T510 412Q454 412 421 369T387 252V240Q387 166 420 124T510 81Z" />
<glyph unicode="A" horiz-adv-x="632" d="M21 0L221 700H411L610 0H499L453 165H179L133 0H21ZM206 265H426L324 633H308L206 265Z" />
<glyph unicode="B" horiz-adv-x="663" d="M47 0V96H141V604H47V700H402Q465 700 512 679T585 618T612 524V514Q612 466 594 435T551 387T502 363V347Q525 341 551 324T596 275T615 194V184Q615 126 588 85T514 22T404 0H47ZM250 98H391Q445 98 476 124T507 196V205Q507
251 477 277T391 303H250V98ZM250 402H391Q442 402 473 427T504 497V507Q504 551 474 576T391 602H250V402Z" />
<glyph unicode="C" horiz-adv-x="643" d="M333 -14Q205 -14 130 58T55 268V432Q55 569 130 641T333 714Q459 714 527 644T596 453V447H489V456Q489 527 451 572T333 617Q253 617 208 569T163 434V266Q163 181 208 132T333 83Q412 83 450 128T489 244V261H596V247Q596
126 528 56T333 -14Z" />
<glyph unicode="D" horiz-adv-x="665" d="M47 0V96H141V604H47V700H327Q467 700 541 629T616 415V284Q616 141 542 71T327 0H47ZM250 98H328Q419 98 463 144T507 281V419Q507 511 463 556T328 601H250V98Z" />
<glyph unicode="E" d="M73 0V700H514V602H181V401H486V303H181V98H519V0H73Z" />
<glyph unicode="F" horiz-adv-x="537" d="M73 0V700H505V602H181V400H479V302H181V0H73Z" />
<glyph unicode="G" horiz-adv-x="661" d="M316 -14Q241 -14 182 18T89 114T55 268V432Q55 569 130 641T333 714Q459 714 527 646T595 462V457H488V465Q488 508 471 542T420 597T333 617Q253 617 208 569T163 434V266Q163 181 208 132T334 82Q414 82 451 126T488
240V253H300V346H595V0H495V71H479Q470 52 453 32T403 -1T316 -14Z" />
<glyph unicode="H" horiz-adv-x="656" d="M73 0V700H181V400H475V700H583V0H475V302H181V0H73Z" />
<glyph unicode="I" horiz-adv-x="254" d="M73 0V700H181V0H73Z" />
<glyph unicode="J" horiz-adv-x="602" d="M265 -14Q160 -14 98 44T36 210V270H144V210Q144 154 174 121T263 87Q319 87 346 120T373 210V602H251V700H559V602H481V210Q481 101 425 44T265 -14Z" />
<glyph unicode="K" horiz-adv-x="618" d="M73 0V700H181V409H197L458 700H599L283 355L610 0H465L197 297H181V0H73Z" />
<glyph unicode="L" horiz-adv-x="544" d="M73 0V700H181V98H518V0H73Z" />
<glyph unicode="M" horiz-adv-x="874" d="M73 0V700H276L429 72H445L598 700H801V0H696V624H680L528 0H346L194 624H178V0H73Z" />
<glyph unicode="N" horiz-adv-x="667" d="M73 0V700H281L471 72H487V700H594V0H386L196 629H180V0H73Z" />
<glyph unicode="O" horiz-adv-x="673" d="M336 -14Q207 -14 131 58T55 268V432Q55 569 131 641T336 714Q465 714 541 642T618 432V268Q618 131 542 59T336 -14ZM336 83Q419 83 464 131T509 264V436Q509 520 464 568T336 617Q255 617 209 569T163 436V264Q163 180
209 132T336 83Z" />
<glyph unicode="P" horiz-adv-x="603" d="M73 0V700H351Q415 700 465 675T544 603T573 491V478Q573 413 544 366T464 294T351 269H181V0H73ZM181 367H340Q397 367 431 397T465 479V489Q465 542 431 572T340 602H181V367Z" />
<glyph unicode="Q" horiz-adv-x="673" d="M336 -14Q207 -14 131 58T55 268V432Q55 569 131 641T336 714Q465 714 541 642T618 432V268Q618 131 542 59T336 -14ZM336 83Q419 83 464 131T509 264V436Q509 520 464 568T336 617Q255 617 209 569T163 436V264Q163 180
209 132T336 83ZM379 -171Q336 -171 310 -145T283 -73V0H389V-55Q389 -85 417 -85H479V-171H379Z" />
<glyph unicode="R" horiz-adv-x="632" d="M73 0V700H367Q432 700 481 678T558 613T586 513V502Q586 436 555 397T478 341V325Q516 323 539 300T562 232V0H453V217Q453 244 439 260T394 276H181V0H73ZM181 374H355Q413 374 445 403T477 484V492Q477 543 446 572T355
602H181V374Z" />
<glyph unicode="S" horiz-adv-x="609" d="M311 -14Q232 -14 171 14T76 96T41 229V254H148V229Q148 155 192 118T311 81Q386 81 424 112T462 194Q462 227 444 248T393 281T314 305L277 314Q210 330 161 353T84 416T57 516Q57 578 87 622T172 690T299 714Q372 714
429 689T520 615T553 492V456H446V492Q446 537 428 565T376 606T299 619Q235 619 200 593T164 519Q164 487 179 467T225 433T300 410L337 401Q405 386 457 363T539 299T569 196Q569 133 538 86T448 13T311 -14Z" />
<glyph unicode="T" horiz-adv-x="588" d="M240 0V602H25V700H563V602H348V0H240Z" />
<glyph unicode="U" horiz-adv-x="669" d="M335 -14Q252 -14 193 16T101 102T68 240V700H177V237Q177 163 218 123T335 83Q411 83 452 123T493 237V700H601V240Q601 159 569 103T477 16T335 -14Z" />
<glyph unicode="V" horiz-adv-x="619" d="M216 0L21 700H133L303 68H316L485 700H597L403 0H216Z" />
<glyph unicode="W" horiz-adv-x="887" d="M136 0L33 700H141L225 73H241L349 700H538L646 73H662L745 700H853L750 0H561L451 636H435L326 0H136Z" />
<glyph unicode="X" horiz-adv-x="641" d="M27 0L242 353L30 700H154L312 430H328L487 700H611L399 353L614 0H489L328 276H312L151 0H27Z" />
<glyph unicode="Y" horiz-adv-x="617" d="M254 0V254L11 700H133L301 383H316L484 700H606L363 254V0H254Z" />
<glyph unicode="Z" horiz-adv-x="577" d="M48 0V140L416 589V603H59V700H527V560L159 111V97H531V0H48Z" />
<glyph unicode="[" horiz-adv-x="347" d="M166 -240Q127 -240 102 -215T76 -150V660Q76 699 101 724T166 750H329V662H203Q176 662 176 632V-122Q176 -152 203 -152H329V-240H166Z" />
<glyph unicode="\" horiz-adv-x="379" d="M284 -200L-10 700H94L388 -200H284Z" />
<glyph unicode="]" horiz-adv-x="347" d="M17 -240V-152H144Q171 -152 171 -122V632Q171 662 144 662H17V750H180Q220 750 245 725T271 660V-150Q271 -189 246 -214T180 -240H17Z" />
<glyph unicode="^" horiz-adv-x="620" d="M72 424L232 700H388L548 424H431L318 633H302L190 424H72Z" />
<glyph unicode="_" horiz-adv-x="620" d="M71 -142V-49H549V-142H71Z" />
<glyph unicode="`" horiz-adv-x="288" d="M148 558L47 700H166L241 558H148Z" />
<glyph unicode="a" horiz-adv-x="577" d="M229 -14Q176 -14 135 4T69 57T44 142Q44 193 68 226T135 277T232 294H382V326Q382 369 356 395T276 421Q223 421 195 396T158 331L62 362Q74 402 100 434T171 487T277 507Q373 507 428 458T483 319V116Q483 86 511 86H553V0H476Q441
0 419 18T397 67V70H382Q374 55 358 35T311 1T229 -14ZM244 71Q306 71 344 106T382 204V214H238Q197 214 172 197T147 145Q147 111 173 91T244 71Z" />
<glyph unicode="b" horiz-adv-x="641" d="M361 -14Q289 -14 251 12T193 70H177V0H76V700H179V426H195Q207 446 227 464T280 495T361 507Q423 507 475 477T558 390T589 254V239Q589 159 558 103T475 16T361 -14ZM331 76Q398 76 441 119T485 242V251Q485 330 442
373T331 416Q265 416 222 373T178 251V242Q178 162 221 119T331 76Z" />
<glyph unicode="c" horiz-adv-x="592" d="M305 -14Q234 -14 177 16T86 103T52 240V253Q52 333 85 389T176 476T305 507Q376 507 426 481T506 412T546 317L446 296Q441 329 425 356T380 399T307 415Q264 415 230 396T175 340T155 251V242Q155 190 175 153T229 97T307
78Q372 78 406 111T449 197L549 174Q537 123 507 80T426 12T305 -14Z" />
<glyph unicode="d" horiz-adv-x="641" d="M280 -14Q219 -14 167 16T84 102T52 239V254Q52 333 83 390T166 477T280 507Q328 507 360 495T414 465T446 426H462V700H565V0H464V70H448Q429 38 391 12T280 -14ZM309 76Q376 76 419 119T463 242V251Q463 330 420 373T309
416Q243 416 200 373T156 251V242Q156 162 199 119T309 76Z" />
<glyph unicode="e" horiz-adv-x="584" d="M302 -14Q227 -14 171 17T84 106T52 240V252Q52 329 83 386T169 475T298 507Q369 507 422 476T506 388T536 257V218H157Q159 153 200 115T304 76Q362 76 391 102T437 162L522 118Q508 90 482 59T412 7T302 -14ZM158 297H431Q427
353 391 384T297 416Q239 416 203 385T158 297Z" />
<glyph unicode="f" horiz-adv-x="439" d="M165 0V406H27V493H165V601Q165 646 192 673T264 700H391V613H297Q268 613 268 583V493H410V406H268V0H165Z" />
<glyph unicode="g" horiz-adv-x="640" d="M52 244V259Q52 337 83 392T167 477T281 507Q353 507 391 480T448 422H464V493H564V-101Q564 -146 538 -173T465 -200H133V-110H433Q462 -110 462 -80V77H446Q435 59 415 40T363 9T281 -3Q219 -3 167 26T83 111T52 244ZM309
87Q376 87 419 129T463 247V256Q463 333 420 374T309 416Q243 416 200 375T156 256V247Q156 172 199 130T309 87Z" />
<glyph unicode="h" horiz-adv-x="615" d="M76 0V700H179V423H195Q205 442 223 460T272 489T350 501Q406 501 449 476T518 406T543 296V0H440V288Q440 352 408 382T320 413Q256 413 218 371T179 249V0H76Z" />
<glyph unicode="i" horiz-adv-x="256" d="M76 0V493H179V0H76ZM128 560Q98 560 78 579T57 630Q57 661 77 680T128 700Q159 700 179 681T199 630Q199 599 179 580T128 560Z" />
<glyph unicode="j" horiz-adv-x="258" d="M-18 -200V-111H49Q78 -111 78 -81V493H181V-101Q181 -146 155 -173T82 -200H-18ZM130 560Q100 560 80 579T59 630Q59 661 79 680T130 700Q161 700 181 681T201 630Q201 599 181 580T130 560Z" />
<glyph unicode="k" horiz-adv-x="551" d="M76 0V700H179V301H195L389 493H526L277 254L534 0H398L195 205H179V0H76Z" />
<glyph unicode="l" horiz-adv-x="256" d="M76 0V700H179V0H76Z" />
<glyph unicode="m" horiz-adv-x="857" d="M76 0V493H177V435H193Q207 461 238 481T322 501Q377 501 410 479T461 421H477Q494 455 526 478T619 501Q667 501 704 482T763 424T785 328V0H682V320Q682 365 658 389T588 414Q540 414 511 383T482 294V0H379V320Q379
365 355 389T285 414Q237 414 208 383T179 294V0H76Z" />
<glyph unicode="n" horiz-adv-x="615" d="M76 0V493H177V419H193Q207 449 243 475T350 501Q406 501 449 476T518 406T543 296V0H440V288Q440 352 408 382T320 413Q256 413 218 371T179 249V0H76Z" />
<glyph unicode="o" horiz-adv-x="615" d="M307 -14Q233 -14 176 16T85 104T52 239V254Q52 332 85 388T175 476T307 507Q381 507 439 476T530 389T563 254V239Q563 161 530 104T439 17T307 -14ZM307 78Q375 78 417 121T460 242V251Q460 328 418 371T307 415Q240
415 198 372T155 251V242Q155 165 197 122T307 78Z" />
<glyph unicode="p" horiz-adv-x="641" d="M76 -200V493H177V422H193Q212 455 250 481T361 507Q423 507 474 477T557 391T589 254V239Q589 159 558 103T475 16T361 -14Q313 -14 280 -2T227 28T195 67H179V-200H76ZM331 76Q399 76 442 119T485 242V251Q485 330 442
373T331 416Q265 416 222 373T178 251V242Q178 162 221 119T331 76Z" />
<glyph unicode="q" horiz-adv-x="641" d="M462 -200V67H446Q435 47 414 29T361 -2T280 -14Q218 -14 166 16T83 102T52 239V254Q52 334 83 390T167 477T280 507Q352 507 390 481T448 422H464V493H565V-200H462ZM309 76Q377 76 420 119T463 242V251Q463 330 420
373T309 416Q243 416 200 373T156 251V242Q156 162 199 119T309 76Z" />
<glyph unicode="r" horiz-adv-x="387" d="M76 0V493H177V435H193Q205 466 231 480T297 495H356V402H293Q243 402 211 375T179 290V0H76Z" />
<glyph unicode="s" horiz-adv-x="525" d="M278 -14Q184 -14 122 28T46 155L142 178Q150 137 169 113T216 79T278 69Q327 69 353 88T380 137Q380 167 355 181T281 204L247 210Q197 219 156 236T91 283T67 360Q67 430 119 468T257 507Q340 507 393 470T463 368L367
341Q358 386 329 404T257 423Q215 423 191 408T167 364Q167 334 190 320T254 299L289 293Q342 284 386 268T455 222T481 142Q481 68 426 27T278 -14Z" />
<glyph unicode="t" horiz-adv-x="458" d="M261 0Q216 0 190 27T163 99V406H27V493H163V656H266V493H413V406H266V117Q266 87 294 87H397V0H261Z" />
<glyph unicode="u" horiz-adv-x="614" d="M265 -9Q209 -9 165 16T96 87T71 197V493H174V204Q174 140 206 110T295 79Q358 79 396 121T435 244V493H538V0H437V74H421Q407 44 371 18T265 -9Z" />
<glyph unicode="v" horiz-adv-x="544" d="M190 0L24 493H133L264 76H280L411 493H520L354 0H190Z" />
<glyph unicode="w" horiz-adv-x="792" d="M130 0L46 493H149L211 69H227L313 493H480L565 69H581L643 493H746L662 0H489L404 423H388L303 0H130Z" />
<glyph unicode="x" horiz-adv-x="593" d="M34 0L222 249L38 493H159L288 316H304L433 493H555L370 249L558 0H435L304 181H288L157 0H34Z" />
<glyph unicode="y" horiz-adv-x="614" d="M133 -200V-110H408Q436 -110 436 -80V72H420Q411 52 393 34T343 3T265 -9Q209 -9 165 16T96 87T71 196V493H174V204Q174 140 206 110T295 79Q358 79 396 121T435 243V493H538V-101Q538 -146 512 -173T439 -200H133Z" />
<glyph unicode="z" horiz-adv-x="519" d="M56 0V126L347 392V406H66V493H459V366L167 100V87H467V0H56Z" />
<glyph unicode="{" horiz-adv-x="449" d="M269 -240Q229 -240 204 -215T179 -150V166Q179 206 138 206H37V304H138Q179 304 179 344V660Q179 699 204 724T269 750H432V662H305Q278 662 278 632V343Q278 308 258 286T202 263H191V247H202Q237 247 257 225T278 167V-122Q278
-152 305 -152H432V-240H269Z" />
<glyph unicode="|" horiz-adv-x="249" d="M73 -246V806H176V-246H73Z" />
<glyph unicode="}" horiz-adv-x="449" d="M17 -240V-152H144Q171 -152 171 -122V167Q171 202 191 224T247 247H259V263H247Q212 263 192 285T171 343V632Q171 662 144 662H17V750H180Q220 750 245 725T271 660V344Q271 304 311 304H412V206H311Q271 206 271 166V-150Q271
-189 246 -214T180 -240H17Z" />
<glyph unicode="~" horiz-adv-x="620" d="M121 253L63 328L170 410Q189 425 209 436T257 447Q286 447 304 434T336 400Q349 382 356 374T377 365Q388 365 397 370T418 385L498 447L556 372L450 290Q431 275 411 264T363 253Q334 253 316 266T283 300Q271 319 264
327T242 335Q231 335 222 330T201 315L121 253Z" />
<glyph unicode="&#xa0;" horiz-adv-x="255" />
<glyph unicode="&#xa1;" horiz-adv-x="276" d="M85 -200V283H190V-200H85ZM138 507Q173 507 196 484T220 425Q220 389 197 366T138 343Q103 343 80 366T56 425Q56 461 79 484T138 507Z" />
<glyph unicode="&#xa2;" horiz-adv-x="598" d="M308 -14Q236 -14 179 16T88 103T55 240V253Q55 333 88 389T178 476T308 507Q379 507 429 481T509 412T548 317L448 296Q444 329 428 356T383 399T310 415Q267 415 233 396T178 340T158 251V242Q158 190 178 153T232
97T310 78Q375 78 409 111T451 197L551 174Q540 123 510 80T429 12T308 -14ZM263 -116V612H357V-116H263Z" />
<glyph unicode="&#xa3;" horiz-adv-x="633" d="M55 0V94H129V297H59V381H129V496Q129 601 188 657T350 714Q452 714 511 658T571 496V435H467V498Q467 555 437 587T350 620Q296 620 265 588T233 498V381H345V297H233V94H575V0H55Z" />
<glyph unicode="&#xa4;" horiz-adv-x="620" d="M109 84L44 149L104 209Q82 239 71 274T60 350Q60 389 71 425T104 491L44 551L109 616L169 556Q199 576 234 588T310 600Q349 600 385 588T451 556L511 616L576 551L516 491Q536 461 548 425T560 350Q560 310 548
275T516 209L576 149L511 84L451 144Q421 122 385 111T310 100Q270 100 235 111T169 144L109 84ZM310 190Q355 190 391 211T448 268T469 350Q469 396 448 432T391 489T310 511Q266 511 230 490T172 432T151 350Q151 305 172 269T229 211T310 190Z" />
<glyph unicode="&#xa5;" horiz-adv-x="620" d="M256 0V276L238 284L7 700H131L302 384H318L489 700H613L382 284L364 276V0H256ZM95 128V213H525V128H95ZM95 269V354H525V269H95Z" />
<glyph unicode="&#xa6;" horiz-adv-x="249" d="M73 366V806H176V366H73ZM73 -246V194H176V-246H73Z" />
<glyph unicode="&#xa7;" horiz-adv-x="486" d="M248 -14Q150 -14 93 40T36 184V201H128V187Q128 134 158 103T248 71Q296 71 321 92T346 150Q346 186 322 204T237 234Q150 249 105 286T59 392Q59 416 65 436T83 474Q59 508 59 555V560Q59 609 83 643T147 695T239
714Q324 714 378 671T432 550V523H341V542Q341 568 329 587T295 618T241 629Q202 629 177 612T152 560Q152 521 184 504T268 476Q355 459 397 423T440 322Q440 272 418 237Q428 220 433 201T439 160V153Q439 79 390 33T248 -14ZM340 296Q343 301 344 306T345 318Q345
348 321 366T238 394Q216 398 196 404T159 418Q152 407 152 392Q152 359 182 343T267 316Q291 312 308 308T340 296Z" />
<glyph unicode="&#xa8;" horiz-adv-x="432" d="M314 557Q285 557 265 576T244 627Q244 659 264 678T314 697Q345 697 365 678T385 627Q385 595 365 576T314 557ZM118 557Q88 557 68 576T47 627Q47 659 67 678T118 697Q148 697 168 678T188 627Q188 595 168 576T118 557Z" />
<glyph unicode="&#xa9;" horiz-adv-x="712" d="M348 -12Q259 -12 193 23T91 125T55 292V408Q55 507 91 574T193 677T348 712H365Q454 712 520 677T621 575T657 408V292Q657 193 622 126T520 23T365 -12H348ZM350 69H363Q462 69 516 124T571 291V409Q571 520 517
575T363 631H350Q250 631 196 576T141 409V291Q141 180 195 125T350 69ZM360 144Q294 144 255 183T216 297V403Q216 478 255 518T359 558Q429 558 464 519T499 416V399H417V422Q417 448 404 464T360 481Q332 481 316 465T299 418V282Q299 253 316 237T360 221Q388
221 402 236T417 281V302H499V286Q499 222 465 183T360 144Z" />
<glyph unicode="&#xaa;" horiz-adv-x="419" d="M166 340Q111 340 74 368T37 451Q37 504 75 531T169 558H269V577Q269 608 253 626T199 645Q162 645 144 628T119 586L48 608Q59 649 96 679T201 709Q267 709 307 675T347 573V434Q347 412 366 412H399V350H342Q316
350 301 362T284 397H272Q267 386 256 373T223 350T166 340ZM179 404Q221 404 245 425T269 489V499H175Q148 499 131 487T114 453Q114 431 131 418T179 404Z" />
<glyph unicode="&#xab;" horiz-adv-x="702" d="M627 13L336 190V305L627 482H633V371L432 255V240L633 124V13H627ZM343 13L52 190V305L343 482H349V371L148 255V240L349 124V13H343Z" />
<glyph unicode="&#xac;" horiz-adv-x="620" d="M428 188V303H101V397H519V188H428Z" />
<glyph unicode="&#xad;" horiz-adv-x="443" d="M74 209V303H370V209H74Z" />
<glyph unicode="&#xae;" horiz-adv-x="523" d="M262 298Q202 298 155 324T80 398T52 506Q52 567 79 614T154 687T262 714Q322 714 369 688T444 614T472 506Q472 445 445 398T370 325T262 298ZM262 339Q338 339 383 384T429 506Q429 582 384 627T262 673Q186 673
140 628T94 506Q94 430 140 385T262 339ZM190 397V619H275Q312 619 331 601T350 558Q350 539 341 525T310 502V494Q327 493 334 483T342 457V397H301V458Q301 479 280 479H230V397H190ZM230 515H276Q293 515 301 525T309 549Q309 563 301 572T276 582H230V515Z"
/>
<glyph unicode="&#xaf;" horiz-adv-x="412" d="M47 570V653H365V570H47Z" />
<glyph unicode="&#xb0;" horiz-adv-x="388" d="M194 401Q149 401 113 421T56 476T34 558Q34 603 55 638T113 694T194 714Q239 714 275 694T332 639T354 557Q354 512 333 477T275 421T194 401ZM194 482Q227 482 248 503T269 558Q269 592 248 612T194 633Q161 633
140 613T119 557Q119 524 140 503T194 482Z" />
<glyph unicode="&#xb1;" horiz-adv-x="620" d="M261 155V304H101V398H261V546H359V398H519V304H359V155H261ZM101 0V94H519V0H101Z" />
<glyph unicode="&#xb2;" horiz-adv-x="365" d="M27 350V387Q27 445 60 479T161 528Q210 539 233 554T257 595Q257 619 238 633T187 648Q155 648 133 633T109 581L30 586Q35 649 78 681T187 713Q252 713 294 681T336 594Q336 540 300 513T199 472Q152 462 132 450T110
415H334V350H27Z" />
<glyph unicode="&#xb3;" horiz-adv-x="370" d="M184 337Q119 337 74 369T23 461L101 469Q104 438 128 420T184 402Q219 402 240 419T261 462Q261 489 241 502T182 516H119V576L221 624V636H31V700H338V629L221 572V560Q277 558 308 534T339 459Q339 423 319 396T264
353T184 337Z" />
<glyph unicode="&#xb4;" horiz-adv-x="288" d="M47 553L122 696H241L140 553H47Z" />
<glyph unicode="&#xb5;" horiz-adv-x="623" d="M73 -200V493H176V203Q176 142 207 111T295 79Q357 79 393 120T430 238V493H533V116Q533 86 561 86H603V0H526Q491 0 470 18T447 70V79H431Q417 43 382 17T286 -9Q250 -9 226 2T188 27H172V-200H73Z" />
<glyph unicode="&#xb6;" horiz-adv-x="596" d="M257 0V294H237Q174 294 126 319T50 388T22 492V503Q22 563 50 607T128 675T241 700H523V0H432V614H349V0H257ZM234 380H257V614H234Q177 614 145 583T113 500V494Q113 443 146 412T234 380Z" />
<glyph unicode="&#xb7;" horiz-adv-x="203" d="M101 205Q66 205 43 228T19 287Q19 323 42 345T101 368Q136 368 159 345T183 287Q183 251 160 228T101 205Z" />
<glyph unicode="&#xb8;" horiz-adv-x="326" d="M157 -210Q126 -210 97 -203T47 -186L69 -123Q87 -131 107 -137T153 -143Q174 -143 187 -136T201 -112Q201 -96 189 -89T151 -82H114L122 21H195L190 -42Q228 -42 253 -62T279 -123Q279 -153 262 -172T217 -201T157 -210Z" />
<glyph unicode="&#xb9;" horiz-adv-x="256" d="M135 350V628H122L92 544H17L76 700H212V350H135Z" />
<glyph unicode="&#xba;" horiz-adv-x="437" d="M218 340Q136 340 86 388T35 524Q35 612 85 660T218 709Q301 709 351 661T401 524Q401 437 351 389T218 340ZM218 405Q265 405 293 436T322 524Q322 581 294 612T218 644Q171 644 143 613T114 524Q114 467 142 436T218 405Z" />
<glyph unicode="&#xbb;" horiz-adv-x="702" d="M353 13V124L554 240V255L353 371V482H359L650 305V190L359 13H353ZM69 13V124L270 240V255L69 371V482H75L366 305V190L75 13H69Z" />
<glyph unicode="&#xbc;" horiz-adv-x="823" d="M135 350V628H122L92 544H17L76 700H212V350H135ZM130 -11L73 36L620 711L677 664L130 -11ZM659 0V77H450V153L602 350H738V142H806V77H738V0H659ZM537 142H659V293H646L537 153V142Z" />
<glyph unicode="&#xbd;" horiz-adv-x="824" d="M135 350V628H122L92 544H17L76 700H212V350H135ZM130 -11L73 36L620 711L677 664L130 -11ZM486 0V37Q486 95 519 129T620 178Q669 189 692 204T716 245Q716 269 697 283T646 298Q614 298 592 283T568 231L489 236Q494
299 537 331T646 363Q711 363 753 331T795 244Q795 190 759 163T658 122Q611 112 591 100T569 65H793V0H486Z" />
<glyph unicode="&#xbe;" horiz-adv-x="893" d="M184 337Q119 337 74 369T23 461L101 469Q104 438 128 420T184 402Q219 402 240 419T261 462Q261 489 241 502T182 516H119V576L221 624V636H31V700H338V629L221 572V560Q277 558 308 534T339 459Q339 423 319 396T264
353T184 337ZM200 -11L143 36L690 711L747 664L200 -11ZM729 0V77H520V153L672 350H808V142H876V77H808V0H729ZM607 142H729V293H716L607 153V142Z" />
<glyph unicode="&#xbf;" horiz-adv-x="579" d="M288 -215Q217 -215 162 -189T76 -118T44 -13Q44 45 65 83T121 145T193 186L215 197Q234 205 241 217T249 252V283H356V248Q356 200 338 171T274 120L252 109Q204 88 177 62T150 -13Q150 -48 168 -72T217 -110T288
-123Q328 -123 361 -109T415 -68T435 2V30H541V3Q541 -66 508 -114T417 -189T288 -215ZM299 507Q335 507 358 484T381 425Q381 389 358 366T299 343Q265 343 242 366T218 425Q218 461 241 484T299 507Z" />
<glyph unicode="&#xc0;" horiz-adv-x="632" d="M21 0L221 700H411L610 0H499L453 165H179L133 0H21ZM206 265H426L324 633H308L206 265ZM288 759L192 885H314L383 759H288Z" />
<glyph unicode="&#xc1;" horiz-adv-x="632" d="M21 0L221 700H411L610 0H499L453 165H179L133 0H21ZM206 265H426L324 633H308L206 265ZM249 758L318 884H440L344 758H249Z" />
<glyph unicode="&#xc2;" horiz-adv-x="632" d="M21 0L221 700H411L610 0H499L453 165H179L133 0H21ZM206 265H426L324 633H308L206 265ZM133 758L253 884H379L500 758H384L324 827H308L248 758H133Z" />
<glyph unicode="&#xc3;" horiz-adv-x="632" d="M21 0L221 700H411L610 0H499L453 165H179L133 0H21ZM206 265H426L324 633H308L206 265ZM198 752L142 794L174 840Q189 862 208 874T254 887Q278 887 294 879T328 853Q339 842 349 835T372 827Q387 827 395 835T412
854L434 885L489 844L457 797Q442 776 424 763T377 750Q354 750 338 758T304 784Q292 795 283 803T259 811Q245 811 236 802T219 783L198 752Z" />
<glyph unicode="&#xc4;" horiz-adv-x="632" d="M21 0L221 700H411L610 0H499L453 165H179L133 0H21ZM206 265H426L324 633H308L206 265ZM421 757Q391 757 371 776T350 827Q350 859 370 878T421 897Q451 897 471 878T491 827Q491 795 471 776T421 757ZM211 757Q181
757 161 776T140 827Q140 859 160 878T211 897Q241 897 261 878T281 827Q281 795 261 776T211 757Z" />
<glyph unicode="&#xc5;" horiz-adv-x="632" d="M21 0L221 700H411L610 0H499L453 165H179L133 0H21ZM206 265H426L324 633H308L206 265ZM316 748Q274 748 245 775T215 846Q215 889 244 916T316 944Q359 944 388 917T418 846Q418 801 388 775T316 748ZM316 810Q334
810 343 820T353 846Q353 862 344 872T316 882Q300 882 290 872T280 846Q280 830 290 820T316 810Z" />
<glyph unicode="&#xc6;" horiz-adv-x="826" d="M382 0V700H781V602H489V401H753V303H489V98H786V0H382ZM21 0L281 700H382V641H366L228 265H382V165H194L134 0H21Z" />
<glyph unicode="&#xc7;" horiz-adv-x="643" d="M333 -14Q205 -14 130 58T55 268V432Q55 569 130 641T333 714Q459 714 527 644T596 453V447H489V456Q489 527 451 572T333 617Q253 617 208 569T163 434V266Q163 181 208 132T333 83Q412 83 450 128T489 244V261H596V247Q596
126 528 56T333 -14ZM333 -210Q302 -210 273 -203T223 -186L245 -123Q263 -131 283 -137T329 -143Q350 -143 363 -136T377 -112Q377 -96 365 -89T327 -82H290L298 21H371L366 -42Q404 -42 429 -62T455 -123Q455 -153 438 -172T393 -201T333 -210Z" />
<glyph unicode="&#xc8;" d="M73 0V700H514V602H181V401H486V303H181V98H519V0H73ZM271 759L175 885H297L366 759H271Z" />
<glyph unicode="&#xc9;" d="M73 0V700H514V602H181V401H486V303H181V98H519V0H73ZM232 758L301 884H423L327 758H232Z" />
<glyph unicode="&#xca;" d="M73 0V700H514V602H181V401H486V303H181V98H519V0H73ZM116 758L236 884H362L483 758H367L307 827H291L231 758H116Z" />
<glyph unicode="&#xcb;" d="M73 0V700H514V602H181V401H486V303H181V98H519V0H73ZM404 757Q374 757 354 776T333 827Q333 859 353 878T404 897Q434 897 454 878T474 827Q474 795 454 776T404 757ZM194 757Q164 757 144 776T123 827Q123 859 143 878T194 897Q224
897 244 878T264 827Q264 795 244 776T194 757Z" />
<glyph unicode="&#xcc;" horiz-adv-x="254" d="M73 0V700H181V0H73ZM355 759L259 885H381L450 759H355Z" />
<glyph unicode="&#xcd;" horiz-adv-x="254" d="M73 0V700H181V0H73ZM60 758L129 884H251L155 758H60Z" />
<glyph unicode="&#xce;" horiz-adv-x="254" d="M73 0V700H181V0H73ZM200 758L320 884H446L567 758H451L391 827H375L315 758H200Z" />
<glyph unicode="&#xcf;" horiz-adv-x="254" d="M73 0V700H181V0H73ZM489 757Q459 757 439 776T418 827Q418 859 438 878T489 897Q519 897 539 878T559 827Q559 795 539 776T489 757ZM279 757Q249 757 229 776T208 827Q208 859 228 878T279 897Q309 897 329 878T349
827Q349 795 329 776T279 757Z" />
<glyph unicode="&#xd0;" horiz-adv-x="665" d="M47 0V96H141V604H47V700H327Q467 700 541 629T616 415V284Q616 141 542 71T327 0H47ZM250 98H328Q419 98 463 144T507 281V419Q507 511 463 556T328 601H250V98ZM303 311V387H625V311H303Z" />
<glyph unicode="&#xd1;" horiz-adv-x="667" d="M73 0V700H281L471 72H487V700H594V0H386L196 629H180V0H73ZM217 752L161 794L193 840Q208 862 227 874T273 887Q297 887 313 879T347 853Q358 842 368 835T391 827Q406 827 414 835T431 854L453 885L508 844L476
797Q461 776 443 763T396 750Q373 750 357 758T323 784Q311 795 302 803T278 811Q264 811 255 802T238 783L217 752Z" />
<glyph unicode="&#xd2;" horiz-adv-x="673" d="M336 -14Q207 -14 131 58T55 268V432Q55 569 131 641T336 714Q465 714 541 642T618 432V268Q618 131 542 59T336 -14ZM336 83Q419 83 464 131T509 264V436Q509 520 464 568T336 617Q255 617 209 569T163 436V264Q163
180 209 132T336 83ZM309 759L213 885H335L404 759H309Z" />
<glyph unicode="&#xd3;" horiz-adv-x="673" d="M336 -14Q207 -14 131 58T55 268V432Q55 569 131 641T336 714Q465 714 541 642T618 432V268Q618 131 542 59T336 -14ZM336 83Q419 83 464 131T509 264V436Q509 520 464 568T336 617Q255 617 209 569T163 436V264Q163
180 209 132T336 83ZM269 758L338 884H460L364 758H269Z" />
<glyph unicode="&#xd4;" horiz-adv-x="673" d="M336 -14Q207 -14 131 58T55 268V432Q55 569 131 641T336 714Q465 714 541 642T618 432V268Q618 131 542 59T336 -14ZM336 83Q419 83 464 131T509 264V436Q509 520 464 568T336 617Q255 617 209 569T163 436V264Q163
180 209 132T336 83ZM153 758L273 884H399L520 758H404L344 827H328L268 758H153Z" />
<glyph unicode="&#xd5;" horiz-adv-x="673" d="M336 -14Q207 -14 131 58T55 268V432Q55 569 131 641T336 714Q465 714 541 642T618 432V268Q618 131 542 59T336 -14ZM336 83Q419 83 464 131T509 264V436Q509 520 464 568T336 617Q255 617 209 569T163 436V264Q163
180 209 132T336 83ZM219 752L163 794L195 840Q210 862 229 874T275 887Q299 887 315 879T349 853Q360 842 370 835T393 827Q408 827 416 835T433 854L455 885L510 844L478 797Q463 776 445 763T398 750Q375 750 359 758T325 784Q313 795 304 803T280 811Q266 811
257 802T240 783L219 752Z" />
<glyph unicode="&#xd6;" horiz-adv-x="673" d="M336 -14Q207 -14 131 58T55 268V432Q55 569 131 641T336 714Q465 714 541 642T618 432V268Q618 131 542 59T336 -14ZM336 83Q419 83 464 131T509 264V436Q509 520 464 568T336 617Q255 617 209 569T163 436V264Q163
180 209 132T336 83ZM442 757Q412 757 392 776T371 827Q371 859 391 878T442 897Q472 897 492 878T512 827Q512 795 492 776T442 757ZM232 757Q202 757 182 776T161 827Q161 859 181 878T232 897Q262 897 282 878T302 827Q302 795 282 776T232 757Z" />
<glyph unicode="&#xd7;" horiz-adv-x="620" d="M170 145L104 211L243 350L104 489L170 555L310 417L450 555L516 489L377 350L516 211L450 145L310 284L170 145Z" />
<glyph unicode="&#xd8;" horiz-adv-x="673" d="M336 -14Q207 -14 131 58T55 268V432Q55 569 131 641T336 714Q465 714 541 642T618 432V268Q618 131 542 59T336 -14ZM336 83Q419 83 464 131T509 264V436Q509 520 464 568T336 617Q255 617 209 569T163 436V264Q163
180 209 132T336 83ZM202 -90L132 -61L471 778L541 749L202 -90Z" />
<glyph unicode="&#xd9;" horiz-adv-x="669" d="M335 -14Q252 -14 193 16T101 102T68 240V700H177V237Q177 163 218 123T335 83Q411 83 452 123T493 237V700H601V240Q601 159 569 103T477 16T335 -14ZM307 759L211 885H333L402 759H307Z" />
<glyph unicode="&#xda;" horiz-adv-x="669" d="M335 -14Q252 -14 193 16T101 102T68 240V700H177V237Q177 163 218 123T335 83Q411 83 452 123T493 237V700H601V240Q601 159 569 103T477 16T335 -14ZM267 758L336 884H458L362 758H267Z" />
<glyph unicode="&#xdb;" horiz-adv-x="669" d="M335 -14Q252 -14 193 16T101 102T68 240V700H177V237Q177 163 218 123T335 83Q411 83 452 123T493 237V700H601V240Q601 159 569 103T477 16T335 -14ZM151 758L271 884H397L518 758H402L342 827H326L266 758H151Z" />
<glyph unicode="&#xdc;" horiz-adv-x="669" d="M335 -14Q252 -14 193 16T101 102T68 240V700H177V237Q177 163 218 123T335 83Q411 83 452 123T493 237V700H601V240Q601 159 569 103T477 16T335 -14ZM440 757Q410 757 390 776T369 827Q369 859 389 878T440 897Q470
897 490 878T510 827Q510 795 490 776T440 757ZM230 757Q200 757 180 776T159 827Q159 859 179 878T230 897Q260 897 280 878T300 827Q300 795 280 776T230 757Z" />
<glyph unicode="&#xdd;" horiz-adv-x="617" d="M254 0V254L11 700H133L301 383H316L484 700H606L363 254V0H254ZM241 758L310 884H432L336 758H241Z" />
<glyph unicode="&#xde;" horiz-adv-x="603" d="M181 145V243H340Q397 243 431 273T465 356V365Q465 418 431 448T340 478H181V576H351Q415 576 465 551T544 479T573 367V354Q573 290 544 243T464 171T351 145H181ZM73 0V700H181V0H73Z" />
<glyph unicode="&#xdf;" horiz-adv-x="639" d="M418 -14Q357 -14 314 6T245 61T210 135L304 163Q313 118 342 95T418 71Q462 71 487 93T512 152Q512 177 500 193T467 221T419 243L379 258Q339 274 320 298T300 352Q300 386 317 407T366 449Q394 467 416 491T438
550Q438 586 409 606T334 627Q298 627 262 609T203 550T179 440V0H76V436Q76 523 109 585T200 681T334 714Q395 714 441 693T513 636T540 553Q540 511 524 481T483 429T427 389Q416 382 411 376T405 361Q405 344 434 333L465 320Q506 304 539 284T593 232T613 152Q613
103 590 66T522 7T418 -14Z" />
<glyph unicode="&#xe0;" horiz-adv-x="577" d="M229 -14Q176 -14 135 4T69 57T44 142Q44 193 68 226T135 277T232 294H382V326Q382 369 356 395T276 421Q223 421 195 396T158 331L62 362Q74 402 100 434T171 487T277 507Q373 507 428 458T483 319V116Q483 86 511
86H553V0H476Q441 0 419 18T397 67V70H382Q374 55 358 35T311 1T229 -14ZM244 71Q306 71 344 106T382 204V214H238Q197 214 172 197T147 145Q147 111 173 91T244 71ZM252 558L151 700H270L345 558H252Z" />
<glyph unicode="&#xe1;" horiz-adv-x="577" d="M229 -14Q176 -14 135 4T69 57T44 142Q44 193 68 226T135 277T232 294H382V326Q382 369 356 395T276 421Q223 421 195 396T158 331L62 362Q74 402 100 434T171 487T277 507Q373 507 428 458T483 319V116Q483 86 511
86H553V0H476Q441 0 419 18T397 67V70H382Q374 55 358 35T311 1T229 -14ZM244 71Q306 71 344 106T382 204V214H238Q197 214 172 197T147 145Q147 111 173 91T244 71ZM217 553L292 696H411L310 553H217Z" />
<glyph unicode="&#xe2;" horiz-adv-x="577" d="M229 -14Q176 -14 135 4T69 57T44 142Q44 193 68 226T135 277T232 294H382V326Q382 369 356 395T276 421Q223 421 195 396T158 331L62 362Q74 402 100 434T171 487T277 507Q373 507 428 458T483 319V116Q483 86 511
86H553V0H476Q441 0 419 18T397 67V70H382Q374 55 358 35T311 1T229 -14ZM244 71Q306 71 344 106T382 204V214H238Q197 214 172 197T147 145Q147 111 173 91T244 71ZM99 553L219 696H343L463 553H355L289 632H273L207 553H99Z" />
<glyph unicode="&#xe3;" horiz-adv-x="577" d="M229 -14Q176 -14 135 4T69 57T44 142Q44 193 68 226T135 277T232 294H382V326Q382 369 356 395T276 421Q223 421 195 396T158 331L62 362Q74 402 100 434T171 487T277 507Q373 507 428 458T483 319V116Q483 86 511
86H553V0H476Q441 0 419 18T397 67V70H382Q374 55 358 35T311 1T229 -14ZM244 71Q306 71 344 106T382 204V214H238Q197 214 172 197T147 145Q147 111 173 91T244 71ZM170 544L110 580L142 637Q155 660 174 671T218 683Q240 683 256 675T289 649Q300 639 310 630T332
621Q345 621 353 629T368 648L388 682L448 645L416 588Q403 566 384 554T340 542Q318 542 302 550T269 576Q258 587 249 595T226 604Q213 604 205 596T190 577L170 544Z" />
<glyph unicode="&#xe4;" horiz-adv-x="577" d="M229 -14Q176 -14 135 4T69 57T44 142Q44 193 68 226T135 277T232 294H382V326Q382 369 356 395T276 421Q223 421 195 396T158 331L62 362Q74 402 100 434T171 487T277 507Q373 507 428 458T483 319V116Q483 86 511
86H553V0H476Q441 0 419 18T397 67V70H382Q374 55 358 35T311 1T229 -14ZM244 71Q306 71 344 106T382 204V214H238Q197 214 172 197T147 145Q147 111 173 91T244 71ZM379 557Q350 557 330 576T309 627Q309 659 329 678T379 697Q410 697 430 678T450 627Q450 595
430 576T379 557ZM183 557Q153 557 133 576T112 627Q112 659 132 678T183 697Q213 697 233 678T253 627Q253 595 233 576T183 557Z" />
<glyph unicode="&#xe5;" horiz-adv-x="577" d="M229 -14Q176 -14 135 4T69 57T44 142Q44 193 68 226T135 277T232 294H382V326Q382 369 356 395T276 421Q223 421 195 396T158 331L62 362Q74 402 100 434T171 487T277 507Q373 507 428 458T483 319V116Q483 86 511
86H553V0H476Q441 0 419 18T397 67V70H382Q374 55 358 35T311 1T229 -14ZM244 71Q306 71 344 106T382 204V214H238Q197 214 172 197T147 145Q147 111 173 91T244 71ZM281 541Q239 541 210 568T180 639Q180 681 209 709T281 737Q324 737 353 710T383 639Q383 594
353 568T281 541ZM281 602Q299 602 308 612T318 639Q318 654 309 664T281 675Q265 675 255 665T245 639Q245 623 255 613T281 602Z" />
<glyph unicode="&#xe6;" horiz-adv-x="899" d="M634 -14Q563 -14 509 21T426 117T396 250Q396 323 425 381T507 473T626 507Q696 507 746 476T823 389T851 265V213H489Q492 152 530 114T630 76Q686 76 715 101T760 156L839 103Q820 73 794 46T730 3T634 -14ZM250
70Q312 70 350 106T388 205V213H243Q199 213 172 196T145 144Q145 111 173 91T250 70ZM241 -14Q155 -14 100 26T44 141Q44 216 98 254T237 292H388V326Q388 368 359 394T275 421Q222 421 192 396T150 331L58 363Q71 402 98 434T169 487T275 507Q339 507 379 485T441
426H467L445 258L456 87H429Q418 66 397 43T337 3T241 -14ZM490 292H749Q747 351 713 383T623 416Q565 416 530 383T490 292Z" />
<glyph unicode="&#xe7;" horiz-adv-x="592" d="M305 -14Q234 -14 177 16T86 103T52 240V253Q52 333 85 389T176 476T305 507Q376 507 426 481T506 412T546 317L446 296Q441 329 425 356T380 399T307 415Q264 415 230 396T175 340T155 251V242Q155 190 175 153T229
97T307 78Q372 78 406 111T449 197L549 174Q537 123 507 80T426 12T305 -14ZM307 -210Q276 -210 247 -203T197 -186L219 -123Q237 -131 257 -137T303 -143Q324 -143 337 -136T351 -112Q351 -96 339 -89T301 -82H264L272 21H345L340 -42Q378 -42 403 -62T429 -123Q429
-153 412 -172T367 -201T307 -210Z" />
<glyph unicode="&#xe8;" horiz-adv-x="584" d="M302 -14Q227 -14 171 17T84 106T52 240V252Q52 329 83 386T169 475T298 507Q369 507 422 476T506 388T536 257V218H157Q159 153 200 115T304 76Q362 76 391 102T437 162L522 118Q508 90 482 59T412 7T302 -14ZM158
297H431Q427 353 391 384T297 416Q239 416 203 385T158 297ZM269 558L168 700H287L362 558H269Z" />
<glyph unicode="&#xe9;" horiz-adv-x="584" d="M302 -14Q227 -14 171 17T84 106T52 240V252Q52 329 83 386T169 475T298 507Q369 507 422 476T506 388T536 257V218H157Q159 153 200 115T304 76Q362 76 391 102T437 162L522 118Q508 90 482 59T412 7T302 -14ZM158
297H431Q427 353 391 384T297 416Q239 416 203 385T158 297ZM233 553L308 696H427L326 553H233Z" />
<glyph unicode="&#xea;" horiz-adv-x="584" d="M302 -14Q227 -14 171 17T84 106T52 240V252Q52 329 83 386T169 475T298 507Q369 507 422 476T506 388T536 257V218H157Q159 153 200 115T304 76Q362 76 391 102T437 162L522 118Q508 90 482 59T412 7T302 -14ZM158
297H431Q427 353 391 384T297 416Q239 416 203 385T158 297ZM116 553L236 696H360L480 553H372L306 632H290L224 553H116Z" />
<glyph unicode="&#xeb;" horiz-adv-x="584" d="M302 -14Q227 -14 171 17T84 106T52 240V252Q52 329 83 386T169 475T298 507Q369 507 422 476T506 388T536 257V218H157Q159 153 200 115T304 76Q362 76 391 102T437 162L522 118Q508 90 482 59T412 7T302 -14ZM158
297H431Q427 353 391 384T297 416Q239 416 203 385T158 297ZM396 557Q367 557 347 576T326 627Q326 659 346 678T396 697Q427 697 447 678T467 627Q467 595 447 576T396 557ZM200 557Q170 557 150 576T129 627Q129 659 149 678T200 697Q230 697 250 678T270 627Q270
595 250 576T200 557Z" />
<glyph unicode="&#xec;" horiz-adv-x="256" d="M76 0V493H179V0H76ZM355 558L254 700H373L448 558H355Z" />
<glyph unicode="&#xed;" horiz-adv-x="256" d="M76 0V493H179V0H76ZM63 553L138 696H257L156 553H63Z" />
<glyph unicode="&#xee;" horiz-adv-x="256" d="M76 0V493H179V0H76ZM202 553L322 696H446L566 553H458L392 632H376L310 553H202Z" />
<glyph unicode="&#xef;" horiz-adv-x="256" d="M76 0V493H179V0H76ZM482 557Q453 557 433 576T412 627Q412 659 432 678T482 697Q513 697 533 678T553 627Q553 595 533 576T482 557ZM286 557Q256 557 236 576T215 627Q215 659 235 678T286 697Q316 697 336 678T356
627Q356 595 336 576T286 557Z" />
<glyph unicode="&#xf0;" horiz-adv-x="615" d="M308 -14Q232 -15 175 17T85 107T52 240V251Q52 326 83 381T165 468T281 500Q335 500 371 483T430 437H446Q427 515 364 574T196 668L228 749Q337 715 411 650T525 491T564 279Q564 184 532 119T443 21T308 -14ZM307
78Q352 78 386 97T440 154T460 243V248Q460 326 418 369T307 413Q240 413 198 370T155 248V243Q155 166 197 122T307 78ZM286 537L235 574L373 764L425 726L286 537Z" />
<glyph unicode="&#xf1;" horiz-adv-x="615" d="M76 0V493H177V419H193Q207 449 243 475T350 501Q406 501 449 476T518 406T543 296V0H440V288Q440 352 408 382T320 413Q256 413 218 371T179 249V0H76ZM195 544L135 580L167 637Q180 660 199 671T243 683Q265 683
281 675T314 649Q325 639 335 630T357 621Q370 621 378 629T393 648L413 682L473 645L441 588Q428 566 409 554T365 542Q343 542 327 550T294 576Q283 587 274 595T251 604Q238 604 230 596T215 577L195 544Z" />
<glyph unicode="&#xf2;" horiz-adv-x="615" d="M307 -14Q233 -14 176 16T85 104T52 239V254Q52 332 85 388T175 476T307 507Q381 507 439 476T530 389T563 254V239Q563 161 530 104T439 17T307 -14ZM307 78Q375 78 417 121T460 242V251Q460 328 418 371T307 415Q240
415 198 372T155 251V242Q155 165 197 122T307 78ZM279 558L178 700H297L372 558H279Z" />
<glyph unicode="&#xf3;" horiz-adv-x="615" d="M307 -14Q233 -14 176 16T85 104T52 239V254Q52 332 85 388T175 476T307 507Q381 507 439 476T530 389T563 254V239Q563 161 530 104T439 17T307 -14ZM307 78Q375 78 417 121T460 242V251Q460 328 418 371T307 415Q240
415 198 372T155 251V242Q155 165 197 122T307 78ZM243 553L318 696H437L336 553H243Z" />
<glyph unicode="&#xf4;" horiz-adv-x="615" d="M307 -14Q233 -14 176 16T85 104T52 239V254Q52 332 85 388T175 476T307 507Q381 507 439 476T530 389T563 254V239Q563 161 530 104T439 17T307 -14ZM307 78Q375 78 417 121T460 242V251Q460 328 418 371T307 415Q240
415 198 372T155 251V242Q155 165 197 122T307 78ZM125 553L245 696H369L489 553H381L315 632H299L233 553H125Z" />
<glyph unicode="&#xf5;" horiz-adv-x="615" d="M307 -14Q233 -14 176 16T85 104T52 239V254Q52 332 85 388T175 476T307 507Q381 507 439 476T530 389T563 254V239Q563 161 530 104T439 17T307 -14ZM307 78Q375 78 417 121T460 242V251Q460 328 418 371T307 415Q240
415 198 372T155 251V242Q155 165 197 122T307 78ZM197 544L137 580L169 637Q182 660 201 671T245 683Q267 683 283 675T316 649Q327 639 337 630T359 621Q372 621 380 629T395 648L415 682L475 645L443 588Q430 566 411 554T367 542Q345 542 329 550T296 576Q285
587 276 595T253 604Q240 604 232 596T217 577L197 544Z" />
<glyph unicode="&#xf6;" horiz-adv-x="615" d="M307 -14Q233 -14 176 16T85 104T52 239V254Q52 332 85 388T175 476T307 507Q381 507 439 476T530 389T563 254V239Q563 161 530 104T439 17T307 -14ZM307 78Q375 78 417 121T460 242V251Q460 328 418 371T307 415Q240
415 198 372T155 251V242Q155 165 197 122T307 78ZM405 557Q376 557 356 576T335 627Q335 659 355 678T405 697Q436 697 456 678T476 627Q476 595 456 576T405 557ZM209 557Q179 557 159 576T138 627Q138 659 158 678T209 697Q239 697 259 678T279 627Q279 595
259 576T209 557Z" />
<glyph unicode="&#xf7;" horiz-adv-x="620" d="M101 303V397H519V303H101ZM310 96Q278 96 256 118T234 172Q234 203 256 225T310 248Q342 248 364 226T386 172Q386 140 364 118T310 96ZM310 452Q278 452 256 474T234 528Q234 560 256 582T310 604Q342 604 364
582T386 528Q386 497 364 475T310 452Z" />
<glyph unicode="&#xf8;" horiz-adv-x="615" d="M307 -14Q233 -14 176 16T85 104T52 239V254Q52 332 85 388T175 476T307 507Q381 507 439 476T530 389T563 254V239Q563 161 530 104T439 17T307 -14ZM307 78Q375 78 417 121T460 242V251Q460 328 418 371T307 415Q240
415 198 372T155 251V242Q155 165 197 122T307 78ZM155 -66L95 -28L459 554L519 516L155 -66Z" />
<glyph unicode="&#xf9;" horiz-adv-x="614" d="M265 -9Q209 -9 165 16T96 87T71 197V493H174V204Q174 140 206 110T295 79Q358 79 396 121T435 244V493H538V0H437V74H421Q407 44 371 18T265 -9ZM276 558L175 700H294L369 558H276Z" />
<glyph unicode="&#xfa;" horiz-adv-x="614" d="M265 -9Q209 -9 165 16T96 87T71 197V493H174V204Q174 140 206 110T295 79Q358 79 396 121T435 244V493H538V0H437V74H421Q407 44 371 18T265 -9ZM240 553L315 696H434L333 553H240Z" />
<glyph unicode="&#xfb;" horiz-adv-x="614" d="M265 -9Q209 -9 165 16T96 87T71 197V493H174V204Q174 140 206 110T295 79Q358 79 396 121T435 244V493H538V0H437V74H421Q407 44 371 18T265 -9ZM122 553L242 696H366L486 553H378L312 632H296L230 553H122Z" />
<glyph unicode="&#xfc;" horiz-adv-x="614" d="M265 -9Q209 -9 165 16T96 87T71 197V493H174V204Q174 140 206 110T295 79Q358 79 396 121T435 244V493H538V0H437V74H421Q407 44 371 18T265 -9ZM403 557Q374 557 354 576T333 627Q333 659 353 678T403 697Q434
697 454 678T474 627Q474 595 454 576T403 557ZM207 557Q177 557 157 576T136 627Q136 659 156 678T207 697Q237 697 257 678T277 627Q277 595 257 576T207 557Z" />
<glyph unicode="&#xfd;" horiz-adv-x="614" d="M133 -200V-110H408Q436 -110 436 -80V72H420Q411 52 393 34T343 3T265 -9Q209 -9 165 16T96 87T71 196V493H174V204Q174 140 206 110T295 79Q358 79 396 121T435 243V493H538V-101Q538 -146 512 -173T439 -200H133ZM240
553L315 696H434L333 553H240Z" />
<glyph unicode="&#xfe;" horiz-adv-x="640" d="M76 -200V700H179V426H194Q206 446 226 464T280 495T361 507Q423 507 474 477T557 390T588 254V239Q588 159 557 103T475 16T361 -14Q313 -14 280 -2T227 28T194 66H179V-200H76ZM331 76Q399 76 442 119T485 242V251Q485
330 442 373T331 416Q265 416 222 373T178 251V242Q178 162 221 119T331 76Z" />
<glyph unicode="&#xff;" horiz-adv-x="614" d="M133 -200V-110H408Q436 -110 436 -80V72H420Q411 52 393 34T343 3T265 -9Q209 -9 165 16T96 87T71 196V493H174V204Q174 140 206 110T295 79Q358 79 396 121T435 243V493H538V-101Q538 -146 512 -173T439 -200H133ZM403
557Q374 557 354 576T333 627Q333 659 353 678T403 697Q434 697 454 678T474 627Q474 595 454 576T403 557ZM207 557Q177 557 157 576T136 627Q136 659 156 678T207 697Q237 697 257 678T277 627Q277 595 257 576T207 557Z" />
<glyph unicode="&#x2013;" horiz-adv-x="595" d="M74 209V303H522V209H74Z" />
<glyph unicode="&#x2014;" horiz-adv-x="899" d="M74 209V303H826V209H74Z" />
<glyph unicode="&#x2018;" horiz-adv-x="273" d="M196 714V655H162Q121 655 121 614V582H136Q171 582 194 561T217 508Q217 473 194 452T136 430Q101 430 79 452T56 511V615Q56 714 155 714H196Z" />
<glyph unicode="&#x2019;" horiz-adv-x="273" d="M77 430V489H111Q152 489 152 530V562H137Q102 562 79 583T56 636Q56 671 79 692T137 714Q172 714 194 692T217 633V529Q217 430 118 430H77Z" />
<glyph unicode="&#x201a;" horiz-adv-x="273" d="M77 -136V-77H111Q152 -77 152 -36V-4H137Q102 -4 79 17T56 70Q56 105 79 126T137 148Q172 148 194 126T217 67V-37Q217 -136 118 -136H77Z" />
<glyph unicode="&#x201c;" horiz-adv-x="470" d="M393 714V655H359Q318 655 318 614V582H333Q368 582 391 561T414 508Q414 473 391 452T333 430Q298 430 276 452T253 511V615Q253 714 352 714H393ZM196 714V655H162Q121 655 121 614V582H136Q171 582 194 561T217
508Q217 473 194 452T136 430Q101 430 79 452T56 511V615Q56 714 155 714H196Z" />
<glyph unicode="&#x201d;" horiz-adv-x="470" d="M77 430V489H111Q152 489 152 530V562H137Q102 562 79 583T56 636Q56 671 79 692T137 714Q172 714 194 692T217 633V529Q217 430 118 430H77ZM274 430V489H308Q349 489 349 530V562H334Q299 562 276 583T253 636Q253
671 276 692T334 714Q369 714 391 692T414 633V529Q414 430 315 430H274Z" />
<glyph unicode="&#x201e;" horiz-adv-x="470" d="M77 -136V-77H111Q152 -77 152 -36V-4H137Q102 -4 79 17T56 70Q56 105 79 126T137 148Q172 148 194 126T217 67V-37Q217 -136 118 -136H77ZM274 -136V-77H308Q349 -77 349 -36V-4H334Q299 -4 276 17T253 70Q253
105 276 126T334 148Q369 148 391 126T414 67V-37Q414 -136 315 -136H274Z" />
<glyph unicode="&#x2022;" horiz-adv-x="380" d="M190 125Q153 125 124 142T76 189T58 256Q58 294 75 323T122 370T190 387Q228 387 258 371T305 324T322 256Q322 218 305 189T257 142T190 125Z" />
<glyph unicode="&#x2039;" horiz-adv-x="471" d="M396 14L52 188V307L396 482H402V372L154 255V240L402 124V14H396Z" />
<glyph unicode="&#x203a;" horiz-adv-x="471" d="M69 14V124L317 240V255L69 372V482H75L419 307V188L75 14H69Z" />
</font>
</defs>
</svg>
